COVID-19 - Последняя информация о коронавирусе на сайте Минздрава | СИДИТЕ ДОМА!





 [ 1 сообщение ] 
Автор Сообщение

СообщениеДобавлено: 17 фев 2017, 21:51 

Не в сети
Супермодератор
Аватара пользователя
Возраст: 30

Спасибо: 8213 / 2148
Сообщения: 95863
Дата регистрации: 15 фев 2012, 16:44
Торренты: 88455
Год выхода: 2000
Жанр: драма, мелодрама, спорт
Режиссер: Джина Принс-Байтвуд

В ролях: Санаа Лэтэн, Омар Эппс, Деннис Хейсберг, Гэри Круз, Джесс Уиллард, Крис Уоррен, Кайла Прэтт, Алфри Вудард, Эл Фостер, Натаниел Беллами, Регина Холл, Джеймс Дюмон, Чарльз О'Бэннон

О фильме:
Моника и Квинси знают друг друга с детства. Еще когда им было по 11, Квинси был потрясен тем, что какая-то девчонка может играть в баскетбол лучше, чем большинство парней. Но время шло, они становились старше. И на смену дружбе пришло другое чувство — любовь. К сожалению, это не продлилось долго — Квинси, мечтая быть как отец известным игроком в НБА, бросает Монику и уходит в профессиональные баскетболисты. Сблизивший их баскетбол их же жестоко и разлучил. Но жизнь не так плоха, и она дарит им случайную встречу, которая может сделать их снова близкими и счастливыми или… чужими и очень далекими.



Страна: США
Продолжительность: 02:04:45
Перевод: Профессиональный [двухголосый]

Файл
Кодек: x264
Качество: BDRip 720p [color-grey](AMIABLE)[/color]
Видео: MPEG-4 AVC, 4760 Кбит/с, 1280x720, 23.976 кадр/с
Аудио #1: AC3, 2 ch, 192 Кбит/с | Русский
Аудио #2: DTS, 6 ch, 1509 Кбит/с | Aнглийский
Субтитры: Английские

Общее
Уникальный идентификатор : 195038628378354214042865565456669683304 (0x92BB12CEF8455D908D7261EC28CD2E68)
Полное имя : Love.and.Basketball.2000.BDRip.720p.mkv
Формат : Matroska
Версия формата : Version 4 / Version 2
Размер файла : 5,63 Гбайт
Продолжительность : 2 ч. 4 м.
Общий поток : 6461 Кбит/сек
Название фильма : Love.and.Basketball.2000
Дата кодирования : UTC 2017-02-17 05:44:52
Программа кодирования : mkvmerge v9.2.0 ('Photograph') 32bit
Библиотека кодирования : libebml v1.3.3 + libmatroska v1.4.4
Обложка : Yes
Attachments : cover.jpg

Видео
Идентификатор : 1
Формат : AVC
Формат/Информация : Advanced Video Codec
Профиль формата : High@L4.1
Параметр CABAC формата : Да
Параметр ReFrames формата : 5 кадров
Идентификатор кодека : V_MPEG4/ISO/AVC
Продолжительность : 2 ч. 4 м.
Битрейт : 4760 Кбит/сек
Ширина : 1280 пикселей
Высота : 720 пикселей
Соотношение сторон : 16:9
Режим частоты кадров : Постоянный
Частота кадров : 23,976 (24000/1001) кадра/сек
Цветовое пространство : YUV
Субдискретизация насыщенности : 4:2:0
Битовая глубина : 8 бит
Тип развёртки : Прогрессивная
Бит/(Пиксели*Кадры) : 0.215
Размер потока : 4,15 Гбайт (74%)
Заголовок : Love.and.Basketball.2000
Библиотека кодирования : x264 core 144 r2525 40bb568
Настройки программы : cabac=1 / ref=5 / deblock=1:-3:-3 / analyse=0x3:0x113 / me=umh / subme=8 / psy=1 / psy_rd=1.00:0.00 / mixed_ref=1 / me_range=16 / chroma_me=1 / trellis=1 / 8x8dct=1 / cqm=0 / deadzone=21,11 / fast_pskip=1 / chroma_qp_offset=-2 / threads=12 / lookahead_threads=2 / sliced_threads=0 / nr=0 / decimate=1 / interlaced=0 / bluray_compat=0 / constrained_intra=0 / bframes=3 / b_pyramid=2 / b_adapt=2 / b_bias=0 / direct=3 / weightb=1 / open_gop=0 / weightp=2 / keyint=240 / keyint_min=24 / scenecut=40 / intra_refresh=0 / rc_lookahead=50 / rc=2pass / mbtree=1 / bitrate=4760 / ratetol=1.0 / qcomp=0.60 / qpmin=0 / qpmax=69 / qpstep=4 / cplxblur=20.0 / qblur=0.5 / ip_ratio=1.40 / aq=1:1.00
Язык : English
Default : Да
Forced : Нет

Аудио #1
Идентификатор : 2
Формат : AC-3
Формат/Информация : Audio Coding 3
Расширение режима : CM (complete main)
Параметр Endianness формата : Big
Идентификатор кодека : A_AC3
Продолжительность : 2 ч. 4 м.
Вид битрейта : Постоянный
Битрейт : 192 Кбит/сек
Каналы : 2 канала
Расположение каналов : Front: L R
Частота : 48,0 КГц
Частота кадров : 31,250 кадров/сек (1536 spf)
Битовая глубина : 16 бит
Метод сжатия : С потерями
Размер потока : 171 Мбайт (3%)
Заголовок : VHS
Язык : Russian
Default : Да
Forced : Нет

Аудио #2
Идентификатор : 3
Формат : DTS
Формат/Информация : Digital Theater Systems
Режим : 16
Параметр Endianness формата : Big
Идентификатор кодека : A_DTS
Продолжительность : 2 ч. 4 м.
Вид битрейта : Постоянный
Битрейт : 1509 Кбит/сек
Каналы : 6 каналов
Расположение каналов : Front: L C R, Side: L R, LFE
Частота : 48,0 КГц
Частота кадров : 93,750 кадра/сек (512 spf)
Битовая глубина : 24 бит
Метод сжатия : С потерями
Размер потока : 1,31 Гбайт (23%)
Язык : English
Default : Нет
Forced : Нет

Текст
Идентификатор : 4
Формат : UTF-8
Идентификатор кодека : S_TEXT/UTF8
Идентификатор кодека/Информация : UTF-8 Plain Text
Продолжительность : 1 ч. 56 м.
Битрейт : 53 бит/сек
Count of elements : 1450
Размер потока : 45,7 Кбайт (0%)
Язык : English
Default : Нет
Forced : Нет

Меню
00:00:00.000 : en:00:00:00.000
00:09:30.570 : en:00:09:30.570
00:19:26.707 : en:00:19:26.707
00:30:59.524 : en:00:30:59.524
00:38:49.077 : en:00:38:49.077
00:49:45.441 : en:00:49:45.441
01:00:41.721 : en:01:00:41.721
01:10:21.426 : en:01:10:21.426
01:19:50.953 : en:01:19:50.953
01:29:06.132 : en:01:29:06.132
01:40:55.967 : en:01:40:55.967
01:51:10.706 : en:01:51:10.706
01:57:56.820 : en:01:57:56.820

_________________
Проголосуй за трекер Открытый торрент трекер - RUS-MEDIA.ORG

Проголосуй Открытый торрент трекер - RUS-MEDIA.ORG


Вернуться к началу
 Профиль Отправить личное сообщение  
 
 [ 1 сообщение ] 
   Похожие темы   Автор   Ответы   Просмотры 
В этой теме нет новых непрочитанных сообщений. Реальная любовь / Love Actually [драма, мелодрама, комедия, 2003] BDRip 720p, Dub

salma3

689

В этой теме нет новых непрочитанных сообщений. Любовное настроение / Fa yeung nin wa / In the Mood for Love [драма, мелодрама, 2000] BDRip 1080p, Dvo

salma3

67

В этой теме нет новых непрочитанных сообщений. Любовь вне правил / Leatherheads [Драма, мелодрама, комедия, спорт, 2008] BDRip 720p, Mvo

salma3

198

В этой теме нет новых непрочитанных сообщений. Любовь и секс / Love & Sex [драма, мелодрама, комедия, 2000] DVDRip, Mvo

salma3

369

В этой теме нет новых непрочитанных сообщений. Ради любви к игре / For Love of the Game [Драма, мелодрама, спорт, 1999] BDRip 720p, Mvo

salma3

36

В этой теме нет новых непрочитанных сообщений. Грязная любовь / Dirty Love [мелодрама, комедия, 2005] WEB-DL 720p, Dvo

salma3

82

В этой теме нет новых непрочитанных сообщений. Первая любовь / First Love / Hatsukoi [Криминал, мелодрама, боевик, 2019] BDRip 720p, Dub [iTunes]

salma3

93





Перейти:  

Для Мосгорсуда, Роскомнадзора и рекламодателей:: rstracker[собака]yandex.ru