[ 1 сообщение ] 
Автор Сообщение

СообщениеДобавлено: 11 май 2019, 17:18 

Не в сети
Супермодератор
Аватара пользователя
Возраст: 30

Спасибо: 8157 / 2148
Сообщения: 95495
Дата регистрации: 15 фев 2012, 16:44
Торренты: 88074
Год выхода: 2009
Жанр: фэнтези, драма, комедия
Режиссер: Бёрр Стирс

В ролях: Зак Эфрон, Лесли Манн, Томас Леннон, Мэттью Перри, Стерлинг Найт, Мишель Трахтенберг, Хантер Пэрриш, Мелора Хардин, Брайан Дойл-Мюррей, Джим Гэффиган

О фильме:
Вы хотели бы начать жизнь сначала? Отец двоих детей Майк О`Доннелл хотел бы. И вот внезапно ему выпадает волшебный шанс вернуться в родную школу Хэйден Хай. Теперь Майк — звезда баскетбольной команды, мечта девчонок и одноклассник собственных отпрысков, превратившийся из нерадивого папаши в отличного друга.



Страна: США
Продолжительность: 01:42:02
Перевод: Дубляж "Мосфильм-Мастер"

Файл
Формат: Matroska
Качество: WEB-DLRip-AVC
Видео: 1024x576 at 23.976 fps, x264@L4.1, ~2611 kbps avg
Aудио: AC3, 6 ch, ~448 kbps
Субтитры: Russian, English
Формат субтитров: softsub (SRT)

***Релиз от: -=DoMiNo=-

General
Unique ID : 268731191904900059022973176091518040281 (0xCA2BBEB4EA60767D1420711B7C4DF8D9)
Complete name : Папе снова 17.(2009).WEB-DLRip-AVC.O.M.[-=DoMiNo=-].mkv
Format : Matroska
Format version : Version 4
File size : 2.18 GiB
Duration : 1 h 42 min
Overall bit rate : 3 062 kb/s
Movie name : Папе снова 17
Deion : Вы хотели бы начать жизнь сначала? Отец двоих детей Майк О`Доннелл хотел бы. И вот внезапно ему выпадает волшебный шанс вернуться в родную школу Хэйден Хай. Теперь Майк — звезда баскетбольной команды, мечта девчонок и одноклассник собственных отпрысков, превратившийся из нерадивого папаши в отличного друга.
Attachments : cover.jpg
ACTORS : Zac Efron, Leslie Mann, Matthew Perry, Tyler Steelman, Allison Miller, Michelle Trachtenberg, Sterling Knight, Thomas Lennon, Kat Graham, Tiya Sircar, Melissa Ordway, Josie Loren, Jim Gaffigan, Collette Wolfe, Adam Gregory, Hunter Parrish, Mario Cassem, Melora Hardin, Brian Doyle-Murray, Tommy Dewey, Lorna Scott, Kodi Kitchen, Diana Maria Riva, Ellis E. Williams, Ed Ackerman, Will Schaub, Loren Lester, Nicole Sullivan, Margaret Cho, Larry Poindexter, Bubba Lewis, Chris Valenti, G. Lane Hillman, Hope Riley, Jeanine Jackson, Gregory Sporleder, Keith Oney, Leonard Wu, Liana Blackburn, Lindsay Taylor, Shelby Rabara, Danielle E. Hawkins, Katrina Norman, Rhapsody Violetti, Tiana Brown, Taisha Monique Clark, Vanessa Lee Chester, Tyne Stecklein, Jordan Schatz, Jesse Heiman
COUNTRY : United States
DATE : 2009-03-11
DIRECTOR : Burr Steers
GENRE : комедия
ITUNEXTC : mpaa|PG-13|300|
ORIGINAL_TITLE : 17 Again
PRODUCER : Jennifer Gibgot, Adam Shankman
PUBLISHER : Offspring Entertainment, New Line Cinema
RATING : 6.20
WRITER : Jason Filardi

Video
ID : 1
Format : AVC
Format/Info : Advanced Video Codec
Format profile : High@L4.1
Format settings : CABAC / 14 Ref Frames
Format settings, CABAC : Yes
Format settings, Reference : 14 frames
Codec ID : V_MPEG4/ISO/AVC
Duration : 1 h 42 min
Bit rate : 2 611 kb/s
Width : 1 024 pixels
Height : 576 pixels
Display aspect ratio : 16:9
Frame rate mode : Constant
Frame rate : 23.976 (24000/1001) FPS
Color space : YUV
Chroma subsampling : 4:2:0
Bit depth : 8 bits
Scan type : Progressive
Bits/(Pixel*Frame) : 0.185
Stream size : 1.82 GiB (83%)
Title : RIP_BY_-=DoMiNo=- | Open Matte
Writing library : x264 core 157 r2935 545de2f
Encoding settings : cabac=1 / ref=14 / deblock=1:-2:-2 / analyse=0x3:0x133 / me=umh / subme=11 / psy=1 / psy_rd=1.00:0.00 / mixed_ref=1 / me_range=32 / chroma_me=1 / trellis=2 / 8x8dct=1 / cqm=0 / deadzone=21,11 / fast_pskip=0 / chroma_qp_offset=-2 / threads=6 / lookahead_threads=1 / sliced_threads=0 / nr=0 / decimate=0 / interlaced=0 / bluray_compat=0 / constrained_intra=0 / bframes=10 / b_pyramid=2 / b_adapt=2 / b_bias=0 / direct=3 / weightb=1 / open_gop=0 / weightp=2 / keyint=240 / keyint_min=24 / scenecut=40 / intra_refresh=0 / rc=2pass / mbtree=0 / bitrate=2611 / ratetol=1.0 / qcomp=0.65 / qpmin=0 / qpmax=69 / qpstep=4 / cplxblur=20.0 / qblur=0.5 / ip_ratio=1.40 / pb_ratio=1.30 / aq=3:0.90
Default : Yes
Forced : No
Color range : Limited
Color primaries : BT.709
Transfer characteristics : BT.709
Matrix coefficients : BT.709

Audio
ID : 2
Format : AC-3
Format/Info : Audio Coding 3
Commercial name : Dolby Digital
Codec ID : A_AC3
Duration : 1 h 42 min
Bit rate mode : Constant
Bit rate : 448 kb/s
Channel(s) : 6 channels
Channel layout : L R C LFE Ls Rs
Sampling rate : 48.0 kHz
Frame rate : 31.250 FPS (1536 SPF)
Bit depth : 16 bits
Compression mode : Lossy
Stream size : 327 MiB (15%)
Title : DUB
Language : Russian
Service kind : Complete Main
Default : Yes
Forced : Yes

Text #1
ID : 3
Format : UTF-8
Codec ID : S_TEXT/UTF8
Codec ID/Info : UTF-8 Plain Text
Title : Russian Forced
Language : Russian
Default : Yes
Forced : Yes

Text #2
ID : 4
Format : UTF-8
Codec ID : S_TEXT/UTF8
Codec ID/Info : UTF-8 Plain Text
Title : Russian Full
Language : Russian
Default : Yes
Forced : No

Text #3
ID : 5
Format : UTF-8
Codec ID : S_TEXT/UTF8
Codec ID/Info : UTF-8 Plain Text
Title : English Full
Language : English
Default : No
Forced : No

Text #4
ID : 6
Format : UTF-8
Codec ID : S_TEXT/UTF8
Codec ID/Info : UTF-8 Plain Text
Title : English Full SDH
Language : English
Default : No
Forced : No

Menu
00:00:00.000 : :Глава 1
00:11:02.537 : :Глава 2
00:20:06.664 : :Глава 3
00:30:29.077 : :Глава 4
00:37:40.300 : :Глава 5
00:46:19.986 : :Глава 6
00:54:40.861 : :Глава 7
01:01:37.277 : :Глава 8
01:09:17.444 : :Глава 9
01:14:44.271 : :Глава 10
01:21:27.132 : :Глава 11
01:27:05.595 : :Глава 12
01:34:11.896 : :Глава 13
01:36:48.261 : :Глава 14

_________________
Проголосуй за трекер Открытый торрент трекер - RUS-MEDIA.ORG

Проголосуй Открытый торрент трекер - RUS-MEDIA.ORG


Вернуться к началу
 Профиль Отправить личное сообщение  
 
 [ 1 сообщение ] 
   Похожие темы   Автор   Ответы   Просмотры 
В этой теме нет новых непрочитанных сообщений. Папе снова 17 / 17 Again [фэнтези, драма, комедия, 2009] WEB-DLRip-AVC, Dub [Open Matte]

salma3

105

В этой теме нет новых непрочитанных сообщений. Папе снова 17 / 17 Again [фэнтези, драма, комедия, 2009] WEB-DL 1080p, Dub [Open Matte]

salma3

60

В этой теме нет новых непрочитанных сообщений. Посылка / The Box [фэнтези, триллер, драма, детектив, 2009] WEB-DLRip-AVC, Dub [Open Matte]

salma3

855

В этой теме нет новых непрочитанных сообщений. Ночь в музее 2 / Night at the Museum: Battle of the Smithsonian [фэнтези, комедия, приключения, 2009] WEB-DLRip-AVC, Dub [Open Matte]

salma3

454

В этой теме нет новых непрочитанных сообщений. Практическая магия / Practical Magic [фэнтези, драма, мелодрама, комедия, 1998] WEB-DLRip-AVC, Dub [Open Matte]

salma3

191

В этой теме нет новых непрочитанных сообщений. Посылка / The Box [фэнтези, триллер, драма, 2009] WEB-DLRip, Dub [Open Matte]

salma3

1271

В этой теме нет новых непрочитанных сообщений. Голая правда / The Ugly Truth [мелодрама, комедия, 2009] WEB-DLRip-AVC, Dub [Open Matte]

salma3

154





Перейти:  

Для Мосгорсуда, Роскомнадзора и рекламодателей:: mosgorsud-torrent[собачка]yandex.ru