[ 1 сообщение ] 
Автор Сообщение

СообщениеДобавлено: 29 апр 2019, 20:10 

Не в сети
Супермодератор
Аватара пользователя
Возраст: 30

Спасибо: 8156 / 2148
Сообщения: 95483
Дата регистрации: 15 фев 2012, 16:44
Торренты: 88057
Год выхода: 2018
Жанр: Боевик, вестерн
Режиссер: Майк Уилуэн

В ролях: Зак Ли, Санни Пан, Конан Стивенс, Ёси Сударсо, Алекс Аббад, Майк Уилуэн, Арио Баю, Донни Аламшя, Тио Пакусодево, Рейну Буссемакер

О фильме:
События разворачиваются на оккупированном острове Ява в конце 19-го века. Два брата Джамар и Суво возвращаются на свою историческую родину, чтобы отомстить за смерть отца от рук колонизаторов. Добравшись до города, где прошло их детство, они выясняют, что вся округа находится во власти врагов, которые уже много лет грабят и убивают коренное население. Братья не могут спокойно смотреть на то, как истребляют их народ, поэтому решают положить конец этой несправедливости. Выросшие на американском Диком Западе, Джамар и Суво хорошо владеют огнестрельным оружием и представляют из себя серьезную силу, но без поддержки местных жителей им не обойтись...



Страна: Индонезия, Сингапур
Продолжительность: 01:42:38
Перевод: Профессиональный многоголосый | HDRezka Studio

Файл
Кодек: x.264
Качество: WEBRip 720p
Видео: MPEG-4 AVC, 3500 Kбит/с, 1280x536, 24.000 кадр/с
Аудио #1: Русский (АС3, 2ch, 256 Кбит/с, 48.0 KHz)
Аудио #2: Индонезийский (АС3, 6ch, 384 Кбит/с, 48.0 KHz)
Субтитры: Английские


General
Unique ID : 224698704318611315831479972183919263560 (0xA90B6574A6FC8D9F88C12A11440F7F48)
Complete name : Buffalo.Boys.2018.WEBRip.720p.mkv
Format : Matroska
Format version : Version 4 / Version 2
File size : 2.97 GiB
Duration : 1 h 42 min
Overall bit rate : 4 141 kb/s
Encoded date : UTC 2019-04-29 08:46:26
Writing application : mkvmerge v7.1.0 ('Good Love') 64bit built on Jul 27 2014 13:06:55
Writing library : libebml v1.3.0 + libmatroska v1.4.1

Video
ID : 1
Format : AVC
Format/Info : Advanced Video Codec
Format profile : High@L4.1
Format settings, CABAC : Yes
Format settings, RefFrames : 12 frames
Codec ID : V_MPEG4/ISO/AVC
Duration : 1 h 42 min
Bit rate : 3 500 kb/s
Width : 1 280 pixels
Height : 536 pixels
Display aspect ratio : 2.40:1
Frame rate mode : Constant
Frame rate : 24.000 FPS
Color space : YUV
Chroma subsampling : 4:2:0
Bit depth : 8 bits
Scan type : Progressive
Bits/(Pixel*Frame) : 0.213
Stream size : 2.51 GiB (84%)
Writing library : x264 core 148 r2638 7599210
Encoding settings : cabac=1 / ref=12 / deblock=1:-3:-3 / analyse=0x3:0x133 / me=umh / subme=11 / psy=1 / psy_rd=1.00:0.20 / mixed_ref=1 / me_range=48 / chroma_me=1 / trellis=2 / 8x8dct=1 / cqm=0 / deadzone=21,11 / fast_pskip=1 / chroma_qp_offset=-3 / threads=6 / lookahead_threads=1 / sliced_threads=0 / nr=0 / decimate=1 / interlaced=0 / bluray_compat=0 / constrained_intra=0 / bframes=10 / b_pyramid=2 / b_adapt=2 / b_bias=0 / direct=3 / weightb=1 / open_gop=0 / weightp=2 / keyint=250 / keyint_min=23 / scenecut=40 / intra_refresh=0 / rc_lookahead=60 / rc=2pass / mbtree=1 / bitrate=3500 / ratetol=1.0 / qcomp=0.60 / qpmin=0 / qpmax=69 / qpstep=4 / cplxblur=20.0 / qblur=0.5 / ip_ratio=1.40 / aq=1:1.00
Language : English
Default : Yes
Forced : No

Audio #1
ID : 2
Format : AC-3
Format/Info : Audio Coding 3
Format settings, Endianness : Big
Codec ID : A_AC3
Duration : 1 h 42 min
Bit rate mode : Constant
Bit rate : 256 kb/s
Channel(s) : 2 channels
Channel positions : Front: L R
Sampling rate : 48.0 kHz
Frame rate : 31.250 FPS (1536 SPF)
Bit depth : 16 bits
Compression mode : Lossy
Stream size : 188 MiB (6%)
Title : MVO | HDRezka Studio
Language : Russian
Service kind : Complete Main
Default : Yes
Forced : No

Audio #2
ID : 3
Format : AC-3
Format/Info : Audio Coding 3
Format settings, Endianness : Big
Codec ID : A_AC3
Duration : 1 h 42 min
Bit rate mode : Constant
Bit rate : 384 kb/s
Channel(s) : 6 channels
Channel positions : Front: L C R, Side: L R, LFE
Sampling rate : 48.0 kHz
Frame rate : 31.250 FPS (1536 SPF)
Bit depth : 16 bits
Compression mode : Lossy
Stream size : 282 MiB (9%)
Language : Indonesian
Service kind : Complete Main
Default : No
Forced : No

Text
ID : 4
Format : UTF-8
Codec ID : S_TEXT/UTF8
Codec ID/Info : UTF-8 Plain Text
Duration : 1 h 37 min
Bit rate : 35 b/s
Count of elements : 1068
Stream size : 25.5 KiB (0%)
Language : English
Default : No
Forced : No

Menu
00:00:00.000 : :Chapter 1
00:02:26.938 : :Chapter 2
00:11:58.051 : :Chapter 3
00:19:23.496 : :Chapter 4
00:30:22.654 : :Chapter 5
00:41:53.678 : :Chapter 6
00:51:47.730 : :Chapter 7
01:01:21.178 : :Chapter 8
01:10:52.957 : :Chapter 9
01:20:17.313 : :Chapter 10
01:28:00.192 : :Chapter 11
01:39:08.693 : :Chapter 12

_________________
Проголосуй за трекер Открытый торрент трекер - RUS-MEDIA.ORG

Проголосуй Открытый торрент трекер - RUS-MEDIA.ORG


Вернуться к началу
 Профиль Отправить личное сообщение  
 
 [ 1 сообщение ] 
   Похожие темы   Автор   Ответы   Просмотры 
В этой теме нет новых непрочитанных сообщений. Ковбои / Buffalo Boys [Боевик, вестерн, 2018] WEBRip 720p, Mvo

salma3

127

В этой теме нет новых непрочитанных сообщений. Ковбои / Buffalo Boys [Боевик, вестерн, 2018] WEB-DL 1080p, Mvo

salma3

145

В этой теме нет новых непрочитанных сообщений. Опасная книга для мальчиков / The Dangerous Book for Boys [S01] [Драма, комедия, 2018] WEBRip 720p, Mvo [Coldfilm]

salma3

249

В этой теме нет новых непрочитанных сообщений. Лонгмайр / Longmire [S06] [Вестерн, драма, боевик, 2017] WEBRip 720p, Mvo [Jaskier]

salma3

138

В этой теме нет новых непрочитанных сообщений. Пацаны / The Boys [S01] [Фантастика, боевик, комедия, 2019] WEBRip 720p, Dvo [Kerob]

salma3

54

В этой теме нет новых непрочитанных сообщений. Белый бизон / Белый буйвол / The White Buffalo [Вестерн, 1977] BDRip-AVC, Mvo

salma3

210

В этой теме нет новых непрочитанных сообщений. Опасная книга для мальчиков / The Dangerous Book for Boys [S01] [Драма, комедия, 2018] WEBRip, Mvo [Coldfilm]

salma3

198





Перейти:  

Для Мосгорсуда, Роскомнадзора и рекламодателей:: mosgorsud-torrent[собачка]yandex.ru