COVID-19 - Последняя информация о коронавирусе на сайте Минздрава





 [ 1 сообщение ] 
Автор Сообщение

СообщениеДобавлено: 24 май 2019, 20:23 

Не в сети
Супермодератор
Аватара пользователя
Возраст: 31

Спасибо: 8273 / 2148
Сообщения: 96528
Дата регистрации: 15 фев 2012, 16:44
Торренты: 89103
Год выпуска: 2018
Жанр: Триллер, драма, криминал
Режиссёр: Сара Даггар-Никсон

В ролях: Оливия Уайлд, Морган Спектор, Бетси Айдем, Кайл Кэтлетт, Тони Патано, С.Дж. Уилсон, Джуди Марте, Кристал Лэйк Эванс, Джим Форд, Дэвид Шамбрис

Описание: Сади помогает жертвам домашнего насилия избавляться от мучителей — она берёт правосудие в свои руки и теми или иными способами разбирается с негодяями. Но сама женщина никак не может смириться с собственным прошлым, и старые шрамы то и дело дают о себе знать.



Страна: США
Продолжительность: 01:31:20
Перевод: Профессиональный многоголосый | [HDRezka Studio]

Качество: WEB-DLRip-AVC
Видео: 1024x530 (1.93:1), 23,976 fps, x264 ~1 681 kbps avg, 0.129 bit/pixel
Аудио #1: 48 kHz, AC3 Dolby Digital, 2 (L,R) ch, ~192.00 kbps avg | RUS (HDRezka Studio)
Аудио #2: 48 kHz, AC3 Dolby Digital, 2 (L,R) ch, ~192.00 kbps avg | ENG
Субтитры: Английские

Общее
Уникальный идентификатор : 302308193505037878724206667312686577659 (0xE36E70B2F2207477ED440C8A8BEE37FB)
Полное имя : F:OlLanDGroupA.Vigilante.2018.WEB-DLRip(AVC).OlLanDGroup.mkv
Формат : Matroska
Версия формата : Version 4 / Version 2
Размер файла : 1,46 Гбайт
Продолжительность : 1 ч. 31 м.
Общий поток : 2285 Кбит/сек
Название фильма : A.Vigilante.2018 #TorpedoUK#
Дата кодирования : UTC 2019-05-24 10:48:54
Программа кодирования : mkvmerge v29.0.0 ('Like It Or Not') 64-bit
Библиотека кодирования : libebml v1.3.6 + libmatroska v1.4.9

Видео
Идентификатор : 1
Формат : AVC
Формат/Информация : Advanced Video Codec
Профиль формата : High@L4.1
Параметр CABAC формата : Да
Параметр ReFrames формата : 10 кадров
Идентификатор кодека : V_MPEG4/ISO/AVC
Продолжительность : 1 ч. 31 м.
Битрейт : 1903 Кбит/сек
Ширина : 1024 пикселя
Высота : 552 пикселя
Соотношение сторон : 1,85:1
Режим частоты кадров : Постоянный
Частота кадров : 23,976 (24000/1001) кадра/сек
Цветовое пространство : YUV
Субдискретизация насыщенности : 4:2:0
Битовая глубина : 8 бит
Тип развёртки : Прогрессивная
Бит/(Пиксели*Кадры) : 0.140
Размер потока : 1,21 Гбайт (83%)
Библиотека кодирования : x264 core 146 r2538 121396c
Настройки программы : cabac=1 / ref=10 / deblock=1:-3:-3 / analyse=0x3:0x113 / me=umh / subme=10 / psy=1 / psy_rd=0.98:0.04 / mixed_ref=1 / me_range=48 / chroma_me=1 / trellis=2 / 8x8dct=1 / cqm=0 / deadzone=21,11 / fast_pskip=1 / chroma_qp_offset=-3 / threads=6 / lookahead_threads=1 / sliced_threads=0 / nr=0 / decimate=1 / interlaced=0 / bluray_compat=0 / constrained_intra=0 / bframes=11 / b_pyramid=2 / b_adapt=2 / b_bias=0 / direct=3 / weightb=1 / open_gop=0 / weightp=2 / keyint=240 / keyint_min=23 / scenecut=40 / intra_refresh=0 / rc_lookahead=40 / rc=2pass / mbtree=0 / bitrate=1903 / ratetol=1.0 / qcomp=0.60 / qpmin=0 / qpmax=69 / qpstep=4 / cplxblur=20.0 / qblur=0.5 / vbv_maxrate=50000 / vbv_bufsize=62500 / nal_hrd=none / filler=0 / ip_ratio=1.40 / pb_ratio=1.30 / aq=1:1.00
Default : Да
Forced : Нет

Аудио #1
Идентификатор : 2
Формат : AC-3
Формат/Информация : Audio Coding 3
Расширение режима : CM (complete main)
Параметр Endianness формата : Big
Идентификатор кодека : A_AC3
Продолжительность : 1 ч. 31 м.
Вид битрейта : Постоянный
Битрейт : 192 Кбит/сек
Каналы : 2 канала
Расположение каналов : Front: L R
Частота : 48,0 КГц
Частота кадров : 31,250 кадров/сек (1536 spf)
Битовая глубина : 16 бит
Метод сжатия : С потерями
Размер потока : 125 Мбайт (8%)
Заголовок : MVO [HDRezka Studio]
Язык : Russian
Default : Да
Forced : Нет

Аудио #2
Идентификатор : 3
Формат : AC-3
Формат/Информация : Audio Coding 3
Расширение режима : CM (complete main)
Параметр Endianness формата : Big
Идентификатор кодека : A_AC3
Продолжительность : 1 ч. 31 м.
Вид битрейта : Постоянный
Битрейт : 192 Кбит/сек
Каналы : 2 канала
Расположение каналов : Front: L R
Частота : 48,0 КГц
Частота кадров : 31,250 кадров/сек (1536 spf)
Битовая глубина : 16 бит
Метод сжатия : С потерями
Размер потока : 125 Мбайт (8%)
Заголовок : [Original]
Язык : English
Default : Нет
Forced : Нет

Текст
Идентификатор : 4
Формат : UTF-8
Идентификатор кодека : S_TEXT/UTF8
Идентификатор кодека/Информация : UTF-8 Plain Text
Продолжительность : 1 ч. 24 м.
Битрейт : 21 бит/сек
Count of elements : 443
Размер потока : 13,5 Кбайт (0%)
Заголовок : Full
Язык : English
Default : Нет
Forced : Нет

Меню
00:00:00.000 : en:1
00:03:17.000 : en:2
00:12:54.000 : en:3
00:24:31.000 : en:4
00:34:20.000 : en:5
00:48:45.000 : en:6
00:56:06.000 : en:7
01:08:43.000 : en:8
01:16:11.000 : en:9
01:26:10.000 : en:10





Релиз от:

_________________
Проголосуй за трекер Открытый торрент трекер - RUS-MEDIA.ORG

Проголосуй Открытый торрент трекер - RUS-MEDIA.ORG


Вернуться к началу
 Профиль Отправить личное сообщение  
 
 [ 1 сообщение ] 
   Похожие темы   Автор   Ответы   Просмотры 
В этой теме нет новых непрочитанных сообщений. Карательница / A Vigilante [Триллер, драма, криминал, 2018] WEB-DLRip-AVC, Mvo

salma3

165

В этой теме нет новых непрочитанных сообщений. Карательница / A Vigilante [Триллер, драма, криминал, 2018] BDRip-AVC, Mvo

salma3

241

В этой теме нет новых непрочитанных сообщений. Карательница / A Vigilante [драма, криминал, детектив, 2018] WEB-DLRip, Avo

salma3

206

В этой теме нет новых непрочитанных сообщений. Карательница / A Vigilante [Триллер, драма, криминал, 2018] WEB-DL 1080p, Avo

salma3

269

В этой теме нет новых непрочитанных сообщений. Операция «Шаровая молния» / Entebbe [Триллер, драма, криминал, 2018] WEB-DLRip-AVC, Mvo

salma3

717

В этой теме нет новых непрочитанных сообщений. Аризона / Arizona [Триллер, комедия, криминал, 2018] WEB-DLRip-AVC, Mvo

salma3

449

В этой теме нет новых непрочитанных сообщений. Расправа / Reprisal [Боевик, триллер, криминал, 2018] WEB-DLRip-AVC, Mvo

salma3

477





Перейти:  

Для Мосгорсуда, Роскомнадзора и рекламодателей:: rstracker[собака]yandex.ru