[ 1 сообщение ] 
Автор Сообщение

СообщениеДобавлено: 01 сен 2018, 11:21 

Не в сети
Супермодератор
Аватара пользователя
Возраст: 30

Спасибо: 8156 / 2148
Сообщения: 95467
Дата регистрации: 15 фев 2012, 16:44
Торренты: 88034
Год выхода: 2006
Жанр: Мультфильм, комедия, приключения
Режиссер: Джон Лассетер, Джо Рэнфт

В ролях: Оуэн Уилсон, Пол Ньюман, Бонни Хант, Ларри-кабельщик, Чич Марин, Тони Шэлуб, Гуидо Куарони, Дженифер Льюис, Пол Дули, Майкл Уоллис


Неукротимый в своем желании всегда и во всем побеждать гоночный автомобиль «Молния» Маккуин вдруг обнаруживает, что сбился с пути и застрял в маленьком захолустном городке Радиатор-Спрингс, что находится где-то на трассе 66 в Калифорнии.
Участвуя в гонках на Кубок Поршня, где ему противостояли два очень опытных соперника, Маккуин совершенно не ожидал, что отныне ему придется общаться с персонажами совсем иного рода. Это, например, Салли — шикарный Порше 2002-го года выпуска, Док Хадсон — легковушка модели «Хадсон Хорнет», 1951-го года выпуска или Метр — ржавый грузовичок-эвакуатор. И все они помогают Маккуину понять, что в мире существуют некоторые более важные вещи, чем слава, призы и спонсоры…



Страна: США
Продолжительность: 01:57:05
Перевод: Дубляж

Файл
Кодек: H.264
Качество: WEB-DLRip-720
Видео: 1280x720 (16:9), 3756 kbps, 23.976 fps
Звук: Русский (AC3, 6 ch, 640 Кбит/с)
Субтитры: Русские

General
Unique ID : 197996141567785198924573728666330141888 (0x94F4AB777A988BCF8CD33276CFC114C0)
Complete name : G:МУЛЬТЫТАЧКИ\01 - Тачки (Open Matte).mkv
Format : Matroska
Format version : Version 4 / Version 2
File size : 3.59 GiB
Duration : 1 h 57 min
Overall bit rate : 4 395 kb/s
Movie name : Тачки / Cars (2006) (Open Matte) - #LORDKILL#
Encoded date : UTC 2018-09-01 03:23:08
Writing application : mkvmerge v9.5.0 ('Quiet Fire') 64bit
Writing library : libebml v1.3.4 + libmatroska v1.4.5

Video
ID : 1
Format : AVC
Format/Info : Advanced Video Codec
Format profile : High@L4.1
Format settings, CABAC : Yes
Format settings, ReFrames : 9 frames
Codec ID : V_MPEG4/ISO/AVC
Duration : 1 h 57 min
Bit rate : 3 756 kb/s
Width : 1 280 pixels
Height : 720 pixels
Display aspect ratio : 16:9
Frame rate mode : Constant
Frame rate : 23.976 (24000/1001) FPS
Color space : YUV
Chroma subsampling : 4:2:0
Bit depth : 8 bits
Scan type : Progressive
Bits/(Pixel*Frame) : 0.170
Stream size : 3.07 GiB (85%)
Writing library : x264 core 148 r2638 7599210
Encoding settings : cabac=1 / ref=9 / deblock=1:-1:-1 / analyse=0x3:0x113 / me=umh / subme=11 / psy=1 / psy_rd=1.10:0.15 / mixed_ref=1 / me_range=64 / chroma_me=1 / trellis=2 / 8x8dct=1 / cqm=0 / deadzone=21,11 / fast_pskip=0 / chroma_qp_offset=-3 / threads=12 / lookahead_threads=2 / sliced_threads=0 / nr=0 / decimate=1 / interlaced=0 / bluray_compat=0 / constrained_intra=0 / bframes=8 / b_pyramid=2 / b_adapt=2 / b_bias=0 / direct=3 / weightb=1 / open_gop=0 / weightp=2 / keyint=240 / keyint_min=23 / scenecut=40 / intra_refresh=0 / rc_lookahead=60 / rc=crf / mbtree=0 / crf=20.0 / qcomp=0.60 / qpmin=0 / qpmax=69 / qpstep=4 / vbv_maxrate=62500 / vbv_bufsize=78125 / crf_max=0.0 / nal_hrd=none / filler=0 / ip_ratio=1.40 / pb_ratio=1.30 / aq=1:0.80
Default : Yes
Forced : No

Audio
ID : 2
Format : AC-3
Format/Info : Audio Coding 3
Mode extension : CM (complete main)
Format settings, Endianness : Big
Codec ID : A_AC3
Duration : 1 h 56 min
Bit rate mode : Constant
Bit rate : 640 kb/s
Channel(s) : 6 channels
Channel positions : Front: L C R, Side: L R, LFE
Sampling rate : 48.0 kHz
Frame rate : 31.250 FPS (1536 spf)
Bit depth : 16 bits
Compression mode : Lossy
Stream size : 534 MiB (14%)
Title : Дубляж
Language : Russian
Default : Yes
Forced : No

Text #1
ID : 3
Format : UTF-8
Codec ID : S_TEXT/UTF8
Codec ID/Info : UTF-8 Plain Text
Duration : 1 h 51 min
Bit rate : 1 b/s
Count of elements : 35
Stream size : 1.58 KiB (0%)
Language : Russian
Default : Yes
Forced : No

Text #2
ID : 4
Format : UTF-8
Codec ID : S_TEXT/UTF8
Codec ID/Info : UTF-8 Plain Text
Duration : 1 h 55 min
Bit rate : 110 b/s
Count of elements : 1479
Stream size : 93.4 KiB (0%)
Language : Russian
Default : No
Forced : No

_________________
Проголосуй за трекер Открытый торрент трекер - RUS-MEDIA.ORG

Проголосуй Открытый торрент трекер - RUS-MEDIA.ORG


Вернуться к началу
 Профиль Отправить личное сообщение  
 
 [ 1 сообщение ] 
   Похожие темы   Автор   Ответы   Просмотры 
В этой теме нет новых непрочитанных сообщений. Тачки / Cars [Мультфильм, комедия, приключения, 2006] WEB-DLRip 720p, Dub [Open Matte]

salma3

3452

В этой теме нет новых непрочитанных сообщений. Тачки / Cars [Мультфильм, комедия, приключения, 2006] WEB-DL 1080p, Dub [Open Matte]

salma3

262

В этой теме нет новых непрочитанных сообщений. Тачки 3 / Cars 3 [Мультфильм, комедия, приключения, 2017] WEB-DLRip, Dub [iTunes]

salma3

253

В этой теме нет новых непрочитанных сообщений. Тачки 3 / Cars 3 [Мультфильм, комедия, приключения, 2017] WEB-DLRip-AVC, Dub [iTunes]

salma3

253

В этой теме нет новых непрочитанных сообщений. Тачки 3 / Cars 3 [Мультфильм, комедия, приключения, 2017] BDRip 720p, Dub+Sub [Лицензия]

salma3

265

В этой теме нет новых непрочитанных сообщений. Тачки / Cars [Мультфильм, комедия, приключения, семейный, спорт, полнометражный, 2006] UHD BDRemux 2160p, Dub | 4K | Лицензия

K15

141

В этой теме нет новых непрочитанных сообщений. Тачки 3 / Cars 3 [Мультфильм, комедия, приключения, 2017] BDRip, Dub+Sub [Лицензия]

salma3

449





Перейти:  

Для Мосгорсуда, Роскомнадзора и рекламодателей:: mosgorsud-torrent[собачка]yandex.ru