[ 1 сообщение ] 
Автор Сообщение

СообщениеДобавлено: 23 май 2019, 11:05 

Не в сети
Супермодератор
Аватара пользователя
Возраст: 30

Спасибо: 8156 / 2148
Сообщения: 95450
Дата регистрации: 15 фев 2012, 16:44
Торренты: 88017
Год выпуска: 2018
Жанр: Драма, биография
Режиссёр: Джо Эдди

В ролях: Андре Брукс, Джен Броберг, Дориан Чирилло, Кристал Миэль Косси, Энтони Дилио, Оджи Дьюк, Дэннис В. Холл, Мэтт Хобби, Чантс Симпсон, Джейсон Славкин

Описание:
Январь 1971 года. После ссоры со своим агентом, голливудская легенда Стив МакКуин неохотно соглашается на сделку. Он выберет свой следующий проект при одном условии: агент должен помочь ему найти культовый Ford Mustang GT 390 из его фильма Буллитт. Во время путешествия по пустыне и обратно в Лос-Анджелес Стив размышляет о своих победах и поражениях. Из его воспоминаний постепенно раскрывается его реальность: разрушающийся брак, терапия, финансовые проблемы и увядающая карьера.



Страна: США
Продолжительность: 01:30:01
Перевод: Профессиональный многоголосый | [HDRezka Studio]

Качество: WEB-DL 1080p
Видео: 1914x796 (2.40:1), 23,976 fps, x264 ~4 594 kbps avg, 0.126 bit/pixel
Аудио #1: 48 kHz, AC3 Dolby Digital, 2 (L,R) ch, ~192.00 kbps avg | RUS (HDRezka Studio)
Аудио #2: 48 kHz, AC3 Dolby Digital, 3/2 (L,C,R,l,r) + LFE ch, ~384.00 kbps avg | ENG
Субтитры: Английские

Общее
Уникальный идентификатор : 210951769382802550943422199663835795016 (0x9EB3D53C0D7BA494DA7600823254CE48)
Полное имя : F:OlLanDGroupChasing.Bullitt.2018.WEB-DL(1080p).OllanDGroup.mkv
Формат : Matroska
Версия формата : Version 4 / Version 2
Размер файла : 3,25 Гбайт
Продолжительность : 1 ч. 30 м.
Общий поток : 5173 Кбит/сек
Дата кодирования : UTC 2019-05-23 06:26:04
Программа кодирования : mkvmerge v29.0.0 ('Like It Or Not') 64-bit
Библиотека кодирования : libebml v1.3.6 + libmatroska v1.4.9

Видео
Идентификатор : 1
Формат : AVC
Формат/Информация : Advanced Video Codec
Профиль формата : High@L4
Параметр CABAC формата : Да
Параметр ReFrames формата : 5 кадров
Идентификатор кодека : V_MPEG4/ISO/AVC
Продолжительность : 1 ч. 30 м.
Битрейт : 4594 Кбит/сек
Ширина : 1914 пикселей
Высота : 796 пикселей
Соотношение сторон : 2,40:1
Режим частоты кадров : Постоянный
Частота кадров : 23,976 кадра/сек
Цветовое пространство : YUV
Субдискретизация насыщенности : 4:2:0
Битовая глубина : 8 бит
Тип развёртки : Прогрессивная
Бит/(Пиксели*Кадры) : 0.126
Размер потока : 2,89 Гбайт (89%)
Язык : English
Default : Да
Forced : Нет
Цветовой диапазон : Limited
Основные цвета : BT.709
Характеристики трансфера : BT.709
Коэффициенты матрицы : BT.709

Аудио #1
Идентификатор : 2
Формат : AC-3
Формат/Информация : Audio Coding 3
Расширение режима : CM (complete main)
Параметр Endianness формата : Big
Идентификатор кодека : A_AC3
Продолжительность : 1 ч. 30 м.
Вид битрейта : Постоянный
Битрейт : 192 Кбит/сек
Каналы : 2 канала
Расположение каналов : Front: L R
Частота : 48,0 КГц
Частота кадров : 31,250 кадров/сек (1536 spf)
Битовая глубина : 16 бит
Метод сжатия : С потерями
Задержка видео : -42 мс.
Размер потока : 124 Мбайт (4%)
Заголовок : MVO [HDRezka Studio]
Язык : Russian
Default : Да
Forced : Нет

Аудио #2
Идентификатор : 3
Формат : AC-3
Формат/Информация : Audio Coding 3
Расширение режима : CM (complete main)
Параметр Endianness формата : Big
Идентификатор кодека : A_AC3
Продолжительность : 1 ч. 30 м.
Вид битрейта : Постоянный
Битрейт : 384 Кбит/сек
Каналы : 6 каналов
Расположение каналов : Front: L C R, Side: L R, LFE
Частота : 48,0 КГц
Частота кадров : 31,250 кадров/сек (1536 spf)
Битовая глубина : 16 бит
Метод сжатия : С потерями
Задержка видео : -42 мс.
Размер потока : 247 Мбайт (7%)
Заголовок : [Original]
Язык : English
Default : Нет
Forced : Нет

Текст
Идентификатор : 4
Формат : UTF-8
Идентификатор кодека : S_TEXT/UTF8
Идентификатор кодека/Информация : UTF-8 Plain Text
Продолжительность : 1 ч. 29 м.
Битрейт : 84 бит/сек
Count of elements : 1543
Размер потока : 55,2 Кбайт (0%)
Заголовок : Full
Язык : English
Default : Нет
Forced : Нет

Меню
00:00:00.000 : en:1
00:06:45.000 : en:2
00:11:49.000 : en:3
00:16:30.000 : en:4
00:20:38.000 : en:5
00:29:02.000 : en:6
00:33:53.000 : en:7
00:41:50.000 : en:8
00:46:37.000 : en:9
00:53:08.000 : en:10
00:58:30.000 : en:11
01:04:15.000 : en:12
01:09:09.000 : en:13
01:14:07.000 : en:14
01:18:41.000 : en:15
01:25:32.000 : en:16


[code][/code]

Релиз от:

_________________
Проголосуй за трекер Открытый торрент трекер - RUS-MEDIA.ORG

Проголосуй Открытый торрент трекер - RUS-MEDIA.ORG


Вернуться к началу
 Профиль Отправить личное сообщение  
 
 [ 1 сообщение ] 
   Похожие темы   Автор   Ответы   Просмотры 
В этой теме нет новых непрочитанных сообщений. В погоне за Буллиттом / Chasing Bullitt [Драма, биография, 2018] WEB-DL 1080p, Mvo

salma3

82

В этой теме нет новых непрочитанных сообщений. В погоне за Папи / Chasing Papi [мелодрама, комедия, 2003] WEB-DL 1080p, Mvo

salma3

136

В этой теме нет новых непрочитанных сообщений. В погоне за Папи / Chasing Papi [Мелодрама, комедия, 2003] WEB-DLRip, Mvo

salma3

133

В этой теме нет новых непрочитанных сообщений. В погоне за Папи / Chasing Papi [мелодрама, комедия, 2003] WEB-DL 720p, Mvo

salma3

135

В этой теме нет новых непрочитанных сообщений. Сокровища Округа Буллиттов / Bullitt County [Боевик, триллер, драма, 2018] WEB-DL 1080p, Mvo

salma3

94

В этой теме нет новых непрочитанных сообщений. В погоне за призраками / Chasing Ghosts [драма, комедия, семейный, 2014] HDTV 1080i, Mvo

salma3

215

В этой теме нет новых непрочитанных сообщений. В погоне за НЛО: Чужие в джунглях / Chasing UFOs: Alien Castaways [2012, документальный, SATRip] VO

salma3

421





Перейти:  

Для Мосгорсуда, Роскомнадзора и рекламодателей:: mosgorsud-torrent[собачка]yandex.ru