COVID-19 - Последняя информация о коронавирусе на сайте Минздрава





 [ 1 сообщение ] 
Автор Сообщение

СообщениеДобавлено: 24 май 2019, 20:07 

Не в сети
Супермодератор
Аватара пользователя
Возраст: 30

Спасибо: 8264 / 2148
Сообщения: 96324
Дата регистрации: 15 фев 2012, 16:44
Торренты: 88900
Год выпуска: 2010
Жанр: Фантастика, боевик, приключения
Режиссер: Джон Фавро

В ролях: Роберт Дауни мл., Гвинет Пэлтроу, Дон Чидл, Скарлетт Йоханссон, Сэм Рокуэлл, Микки Рурк, Сэмюэл Л. Джексон, Кларк Грегг, Джон Слэттери, Гарри Шендлинг


Прошло полгода с тех пор, как мир узнал, что миллиардер-изобретатель Тони Старк является обладателем уникальной кибер-брони Железного человека. Общественность требует, чтобы Старк передал технологию брони правительству США, но Тони не хочет разглашать её секреты, потому что боится, что она попадёт не в те руки. Между тем Иван Ванко — сын русского учёного, когда-то работавшего на фирму Старка, но потом уволенного и лишенного всего, намерен отомстить Тони за беды своей семьи. Для чего сооружает своё высокотехнологичное оружие.



Страна: США
Продолжительность: 02:04:39
Перевод: Дубляж

Файл
Кодек: H.264
Качество: WEB-DLRip 720 от SuperMin
Видео: 1280x720 (16:9), 3282 kbps, 23.976 fps
Звук: Русский (AC3, 6 ch, 640 Кбит/с) - Дубляж
Английский (AC-3, 6ch, 640 kbps)
Субтитры: Русские (форс., полные), английские

General
Unique ID : 296633606573004926722081664598365283723 (0xDF298DF66708081D47A76CB5AB11A58B)
Complete name : H:ФИЛЬМЫЖелезный человек-2 (Open Matte).mkv
Format : Matroska
Format version : Version 4
File size : 3.97 GiB
Duration : 2 h 4 min
Overall bit rate : 4 565 kb/s
Movie name : Железный человек-2 / Iron Man 2 (2010) (Open Matte) - #LORDKILL#
Encoded date : UTC 2019-05-24 14:52:13
Writing application : mkvmerge v21.0.0 ('Tardigrades Will Inherit The Earth') 64-bit
Writing library : libebml v1.3.5 + libmatroska v1.4.8

Video
ID : 1
Format : AVC
Format/Info : Advanced Video Codec
Format profile : High@L4.1
Format settings : CABAC / 9 Ref Frames
Format settings, CABAC : Yes
Format settings, ReFrames : 9 frames
Codec ID : V_MPEG4/ISO/AVC
Duration : 2 h 4 min
Bit rate : 3 282 kb/s
Width : 1 280 pixels
Height : 720 pixels
Display aspect ratio : 16:9
Frame rate mode : Constant
Frame rate : 23.976 (24000/1001) FPS
Color space : YUV
Chroma subsampling : 4:2:0
Bit depth : 8 bits
Scan type : Progressive
Bits/(Pixel*Frame) : 0.149
Stream size : 2.86 GiB (72%)
Writing library : x264 core 146 r2538 121396c
Encoding settings : cabac=1 / ref=9 / deblock=1:-2:-2 / analyse=0x3:0x113 / me=umh / subme=11 / psy=1 / psy_rd=1.00:0.20 / mixed_ref=1 / me_range=32 / chroma_me=1 / trellis=2 / 8x8dct=1 / cqm=0 / deadzone=21,11 / fast_pskip=0 / chroma_qp_offset=-3 / threads=12 / lookahead_threads=2 / sliced_threads=0 / nr=0 / decimate=1 / interlaced=0 / bluray_compat=0 / constrained_intra=0 / bframes=8 / b_pyramid=2 / b_adapt=2 / b_bias=0 / direct=1 / weightb=1 / open_gop=0 / weightp=2 / keyint=240 / keyint_min=23 / scenecut=40 / intra_refresh=0 / rc=crf / mbtree=0 / crf=20.0 / qcomp=0.60 / qpmin=0 / qpmax=69 / qpstep=4 / ip_ratio=1.40 / pb_ratio=1.30 / aq=1:1.00
Language : English
Default : Yes
Forced : No

Audio #1
ID : 2
Format : AC-3
Format/Info : Audio Coding 3
Commercial name : Dolby Digital
Codec ID : A_AC3
Duration : 2 h 4 min
Bit rate mode : Constant
Bit rate : 640 kb/s
Channel(s) : 6 channels
Channel layout : L R C LFE Ls Rs
Sampling rate : 48.0 kHz
Frame rate : 31.250 FPS (1536 SPF)
Bit depth : 16 bits
Compression mode : Lossy
Stream size : 570 MiB (14%)
Title : Дубляж - BluRay
Language : Russian
Service kind : Complete Main
Default : Yes
Forced : No

Audio #2
ID : 3
Format : E-AC-3
Format/Info : Enhanced AC-3
Commercial name : Dolby Digital Plus
Codec ID : A_EAC3
Duration : 2 h 4 min
Bit rate mode : Constant
Bit rate : 640 kb/s
Channel(s) : 6 channels
Channel layout : L R C LFE Ls Rs
Sampling rate : 48.0 kHz
Frame rate : 31.250 FPS (1536 SPF)
Compression mode : Lossy
Stream size : 570 MiB (14%)
Title : Оригинал - Amazon
Language : English
Service kind : Complete Main
Default : No
Forced : No

Text #1
ID : 4
Format : UTF-8
Codec ID : S_TEXT/UTF8
Codec ID/Info : UTF-8 Plain Text
Duration : 2 h 3 min
Bit rate : 1 b/s
Count of elements : 21
Stream size : 1.00 KiB (0%)
Title : Надписи и пр. (BluRay)
Language : Russian
Default : Yes
Forced : No

Text #2
ID : 5
Format : UTF-8
Codec ID : S_TEXT/UTF8
Codec ID/Info : UTF-8 Plain Text
Duration : 2 h 4 min
Bit rate : 109 b/s
Count of elements : 1549
Stream size : 99.7 KiB (0%)
Title : Полные (BluRay)
Language : Russian
Default : No
Forced : No

Text #3
ID : 6
Format : UTF-8
Codec ID : S_TEXT/UTF8
Codec ID/Info : UTF-8 Plain Text
Duration : 2 h 4 min
Bit rate : 68 b/s
Count of elements : 1537
Stream size : 62.0 KiB (0%)
Title : Полные (BluRay)
Language : English
Default : No
Forced : No

Text #4
ID : 7
Format : UTF-8
Codec ID : S_TEXT/UTF8
Codec ID/Info : UTF-8 Plain Text
Duration : 2 h 4 min
Bit rate : 69 b/s
Count of elements : 1634
Stream size : 63.7 KiB (0%)
Title : Полные, SDH (Amazon)
Language : English
Default : No
Forced : No

Text #5
ID : 8
Format : UTF-8
Codec ID : S_TEXT/UTF8
Codec ID/Info : UTF-8 Plain Text
Duration : 2 h 4 min
Bit rate : 109 b/s
Count of elements : 2144
Stream size : 99.6 KiB (0%)
Title : Комментарии Джона Фавро
Language : English
Default : No
Forced : No

Menu
00:00:00.000 : en:Studio Logos
00:00:37.000 : en:Anton Vanko Watches Stark's Press Conference
00:02:42.000 : en:Ivan Builds a Weapon
00:05:03.000 : en:Tony Makes the Opening Speech at Stark Expo
00:08:55.000 : en:Stark Gets Served
00:11:06.000 : en:Stark Defends Himself in a Senate Hearing
00:17:12.000 : en:Ivan Completes His Work
00:17:59.000 : en:Stark Checks the Status of the Arc Reactor
00:19:22.000 : en:Stark Makes Pepper the New CEO
00:22:20.000 : en:Ivan Makes Arrangements to Travel
00:22:59.000 : en:Stark Admires Pepper's New Assistant
00:25:52.000 : en:Stark Arrives at the Monaco Grand Prix
00:30:14.000 : en:Ivan Makes an Appearance
00:37:31.000 : en:Stark Questions Ivan
00:40:16.000 : en:Stark Tries to Talk Pepper into Taking a Break with Him
00:42:09.000 : en:Ivan Is Broken out of Jail
00:44:00.000 : en:Hammer Enlists Ivan
00:46:52.000 : en:Rhodey Informs Tony about the Military's Intentions
00:49:42.000 : en:Hammer Shows Ivan the Facilities
00:51:38.000 : en:Stark Talks to Natalie
00:53:14.000 : en:Rhodey Shuts Down Tony's Birthday Party
00:56:44.000 : en:A Fight Breaks Out at the Birthday Party
01:00:08.000 : en:Rhodey Flies to an Air Force Base
01:01:20.000 : en:Nick Fury Talks to Stark about His Problem
01:03:59.000 : en:Hammer Discovers Ivan Is Creating Drones
01:06:11.000 : en:Rhodey Shows General Meade the Suit
01:07:00.000 : en:Nick Fury Tells Tony about the Arc Reactor
01:09:53.000 : en:Hammer Presents Several Weapons to Rhodey
01:12:52.000 : en:Tony Goes through the Package
01:15:59.000 : en:Stark Tries to Apologize to Pepper
01:21:12.000 : en:Stark Rediscovers the Key
01:23:42.000 : en:Stark Synthesizes a New Element for His Reactor
01:27:27.000 : en:Ivan Talks to Hammer about Drones
01:30:32.000 : en:Ivan Gives Tony a Call
01:32:02.000 : en:Hammer Presents at Stark Expo
01:35:31.000 : en:Iron Man Crashes the Expo
01:36:58.000 : en:Drones and War Machine Pursue Iron Man
01:41:17.000 : en:Black Widow and Happy Provide Added Support
01:45:40.000 : en:Stark and Rhodey Finish Off the Hammer Drones
01:48:59.000 : en:Tony and Rhodey Battle Vanko
01:52:13.000 : en:Stark and Pepper Assess Their Relationship
01:54:16.000 : en:Fury Gives Stark His Psychological Assessment
01:56:09.000 : en:Senator Stern Presents Medals to Stark and Rhodey
01:57:01.000 : en:End Credits
02:03:35.000 : en:Agent Coulson Reports Finding a Hammer
02:04:27.000 : en:Studio Logos

_________________
Проголосуй за трекер Открытый торрент трекер - RUS-MEDIA.ORG

Проголосуй Открытый торрент трекер - RUS-MEDIA.ORG


Вернуться к началу
 Профиль Отправить личное сообщение  
 
 [ 1 сообщение ] 
   Похожие темы   Автор   Ответы   Просмотры 
В этой теме нет новых непрочитанных сообщений. Железный человек 2 / Iron Man [Фантастика, боевик, приключения, 2008] WEB-DLRip 720p, Dub [Open Matte]

salma3

129

В этой теме нет новых непрочитанных сообщений. Железный человек 2 / Iron Man 2 [фантастика, боевик, приключения, 2010] WEB-DLRip-AVC, Dub [Open Matte]

salma3

116

В этой теме нет новых непрочитанных сообщений. Железный человек / Iron Man [Фантастика, боевик, приключения, 2008] Hybrid 1080p, Dub [Open Matte]

salma3

255

В этой теме нет новых непрочитанных сообщений. Железный человек 2 / Iron Man 2 [фантастика, боевик, приключения, 2010] WEB-DL 1080p, Dub [Open Matte]

salma3

108

В этой теме нет новых непрочитанных сообщений. Железный человек 2 / Iron Man 2 [фантастика, боевик, приключения, 2010] HDRip, Dub [Open Matte] [Лицензия]

K15

88

В этой теме нет новых непрочитанных сообщений. Железный человек / Iron Man [фантастика, боевик, приключения, 2008] UHD BDRemux 2160p, Dub [4K]

salma3

309

В этой теме нет новых непрочитанных сообщений. Железный человек 2 / Iron Man 2 [Фантастика, боевик, приключения, 2010] BDRip-HEVC 720p, Dub

salma3

101





Перейти:  

Для Мосгорсуда, Роскомнадзора и рекламодателей:: rstracker[собака]yandex.ru