COVID-19 - Последняя информация о коронавирусе на сайте Минздрава





 [ 1 сообщение ] 
Автор Сообщение

СообщениеДобавлено: 25 май 2019, 11:43 

Не в сети
Супермодератор
Аватара пользователя
Возраст: 30

Спасибо: 8264 / 2148
Сообщения: 96324
Дата регистрации: 15 фев 2012, 16:44
Торренты: 88900
Год выпуска: 1996
Выпущено: США
Жанр: Триллер, детектив
Режиссер: Эми Холден Джонс

В ролях: Холли Берри, Питер Грин, Клайв Оуэн, Фрэнки Фэйзон, Чарльз Хэллахан, Аллан Рич, Клеа Льюис, Кристофер МакДональд

О фильме: В разговоре с незнакомцем Джози случайно обмолвилась о том, что она хотела бы видеть своего мужа мертвым. Но у слова есть таинственная власть изменять судьбы. Вскоре после этого ее «обожаемого» супруга убивают. И все улики указывают на нее.Вдова становится главной подозреваемой в кровавом убийстве. Но это – лишь начало кошмара, в который все глубже погружается жизнь женщины. За своей спиной она чувствует дыхание жестокого преследователя.

Продолжительность: 01:34:50
Перевод: Профессиональный многоголосый
Субтитры: Русские, английские
Навигация по главам: Есть

Файл
Качество: BDRip 720p
Видео: MPEG-4 AVC, 6100 Кбит/сек, 1280x692, 23,976 кадра/сек
Аудио #1: AC3, 2 ch, 192 Кбит/сек | Русский, профессиональный (многоголосый закадровый) Первый канал
Аудио #2: AC3, 2 ch, 192 Кбит/сек | Русский, профессиональный (многоголосый закадровый)
Аудио #3: AC3, 6 ch, 384 Кбит/сек | Английский, оригинал, DVD
Аудио #4: AC3, 2 ch, 384 Кбит/сек | Английский, оригинал, BD



x264 [info]: frame I:757 Avg QP:15.13 size:106296
x264 [info]: frame P:27541 Avg QP:17.50 size: 50758
x264 [info]: frame B:108132 Avg QP:19.39 size: 26413
-----------------------------------------------------
Общее
Уникальный идентификатор : 217704468852510246529472450642172564538 (0xA3C85B05EA16F5AD88332D23CDFDD43A)
Полное имя : I:To407Жена.богача.1996.BDRip.720p.KORSAR.mkv
Формат : Matroska
Версия формата : Version 2
Размер файла : 4,80 Гбайт
Продолжительность : 1 ч. 34 м.
Общий поток : 7249 Кбит/сек
Дата кодирования : UTC 2018-10-25 09:21:33
Программа кодирования : mkvmerge v5.8.0 ('No Sleep / Pillow') built on Sep 2 2012 15:37:04
Библиотека кодирования : libebml v1.2.3 + libmatroska v1.3.0

Видео
Идентификатор : 1
Формат : AVC
Формат/Информация : Advanced Video Codec
Профиль формата : High@L4.1
Настройки формата : CABAC / 9 Ref Frames
Параметр CABAC формата : Да
Параметр RefFrames формата : 9 кадров
Идентификатор кодека : V_MPEG4/ISO/AVC
Продолжительность : 1 ч. 34 м.
Битрейт : 6100 Кбит/сек
Ширина : 1280 пикселей
Высота : 692 пикселя
Соотношение сторон : 1,85:1
Режим частоты кадров : Постоянный
Частота кадров : 23,976 (24000/1001) кадра/сек
Цветовое пространство : YUV
Субдискретизация насыщенности : 4:2:0
Битовая глубина : 8 бит
Тип развёртки : Прогрессивная
Бит/(Пиксели*Кадры) : 0.287
Размер потока : 3,94 Гбайт (82%)
Заголовок : RIP | MZMA
Библиотека кодирования : x264 core 152 r2851kMod ba24899
Настройки программы : cabac=1 / ref=9 / deblock=1:-3:-2 / analyse=0x3:0x113 / me=umh / subme=11 / psy=1 / fade_compensate=0.00 / psy_rd=1.00:0.00 / mixed_ref=1 / me_range=48 / chroma_me=1 / trellis=2 / 8x8dct=1 / cqm=0 / deadzone=21,11 / fast_pskip=0 / chroma_qp_offset=-2 / threads=6 / lookahead_threads=1 / sliced_threads=0 / nr=0 / decimate=0 / interlaced=0 / bluray_compat=0 / constrained_intra=0 / bframes=16 / b_pyramid=2 / b_adapt=2 / b_bias=0 / direct=3 / weightb=1 / open_gop=0 / weightp=2 / keyint=240 / keyint_min=23 / scenecut=40 / intra_refresh=0 / rc_lookahead=40 / rc=2pass / mbtree=0 / bitrate=6100 / ratetol=1.0 / qcomp=0.60 / qpmin=0 / qpmax=69 / qpstep=4 / cplxblur=20.0 / qblur=0.5 / vbv_maxrate=50000 / vbv_bufsize=62500 / nal_hrd=none / filler=0 / ip_ratio=1.40 / pb_ratio=1.30 / aq=3:0.70
Язык : English
По умолчанию : Да
Принудительно : Нет
Цветовой диапазон : Limited
Основные цвета : BT.709
Характеристики трансфера : BT.709
Коэффициенты матрицы : BT.709

Аудио #1
Идентификатор : 2
Формат : AC-3
Формат/Информация : Audio Coding 3
Идентификатор кодека : A_AC3
Продолжительность : 1 ч. 34 м.
Вид битрейта : Постоянный
Битрейт : 192 Кбит/сек
Каналы : 2 канала
Расположение каналов : Front: L R
Частота : 48,0 КГц
Частота кадров : 31,250 кадров/сек (1536 SPF)
Битовая глубина : 16 бит
Метод сжатия : С потерями
Размер потока : 130 Мбайт (3%)
Заголовок : MVO | Первый канал
Язык : Russian
По умолчанию : Да
Принудительно : Нет

Аудио #2
Идентификатор : 3
Формат : AC-3
Формат/Информация : Audio Coding 3
Идентификатор кодека : A_AC3
Продолжительность : 1 ч. 34 м.
Вид битрейта : Постоянный
Битрейт : 192 Кбит/сек
Каналы : 2 канала
Расположение каналов : Front: L R
Частота : 48,0 КГц
Частота кадров : 31,250 кадров/сек (1536 SPF)
Битовая глубина : 16 бит
Метод сжатия : С потерями
Размер потока : 130 Мбайт (3%)
Заголовок : MVO
Язык : Russian
По умолчанию : Нет
Принудительно : Нет

Аудио #3
Идентификатор : 4
Формат : AC-3
Формат/Информация : Audio Coding 3
Идентификатор кодека : A_AC3
Продолжительность : 1 ч. 34 м.
Вид битрейта : Постоянный
Битрейт : 384 Кбит/сек
Каналы : 6 каналов
Расположение каналов : Front: L C R, Side: L R, LFE
Частота : 48,0 КГц
Частота кадров : 31,250 кадров/сек (1536 SPF)
Битовая глубина : 16 бит
Метод сжатия : С потерями
Размер потока : 260 Мбайт (5%)
Заголовок : Original | 5.1
Язык : English
По умолчанию : Нет
Принудительно : Нет

Аудио #4
Идентификатор : 5
Формат : AC-3
Формат/Информация : Audio Coding 3
Идентификатор кодека : A_AC3
Продолжительность : 1 ч. 34 м.
Вид битрейта : Постоянный
Битрейт : 384 Кбит/сек
Каналы : 2 канала
Расположение каналов : Front: L R
Частота : 48,0 КГц
Частота кадров : 31,250 кадров/сек (1536 SPF)
Битовая глубина : 16 бит
Метод сжатия : С потерями
Размер потока : 260 Мбайт (5%)
Заголовок : Original | 2.0
Язык : English
По умолчанию : Нет
Принудительно : Нет

Текст #1
Идентификатор : 6
Формат : UTF-8
Идентификатор кодека : S_TEXT/UTF8
Идентификатор кодека/Информация : UTF-8 Plain Text
Заголовок : SDH
Язык : Russian
По умолчанию : Нет
Принудительно : Нет

Текст #2
Идентификатор : 7
Формат : UTF-8
Идентификатор кодека : S_TEXT/UTF8
Идентификатор кодека/Информация : UTF-8 Plain Text
Заголовок : SDH
Язык : English
По умолчанию : Нет
Принудительно : Нет

Меню
00:00:00.000 : en:1. Opening Credits/An Interrogation
00:07:22.752 : en:2. Romantic Getaway
00:12:15.412 : en:3. A Stranger In The Night
00:17:59.882 : en:4. Hypothetical Homicide
00:23:29.512 : en:5. Ride With A Madman
00:27:38.112 : en:6. A Clean Slate
00:31:11.772 : en:7. Slaughter In The Storm
00:36:52.112 : en:8. Blackmail
00:43:10.422 : en:9. The Police Station
00:49:57.412 : en:10. Sharing The Secret
00:52:36.252 : en:11. Strange Bedfellows
00:56:40.312 : en:12. An Ex-Wife
01:03:04.902 : en:13. Surveillance At The Cemetery
01:07:08.012 : en:14. The Payoff Gone Bad
01:11:56.972 : en:15. Piecing Together The Puzzle
01:15:53.212 : en:16. Murder In The Mansion
01:25:17.682 : en:17. Not Buying The Story
01:26:53.112 : en:18. One Last Witness
01:29:59.112 : en:19. End Credits

Релиз от:

_________________
Проголосуй за трекер Открытый торрент трекер - RUS-MEDIA.ORG

Проголосуй Открытый торрент трекер - RUS-MEDIA.ORG


Вернуться к началу
 Профиль Отправить личное сообщение  
 
 [ 1 сообщение ] 
   Похожие темы   Автор   Ответы   Просмотры 
В этой теме нет новых непрочитанных сообщений. Жена богача / The Rich Man's Wife [Триллер, детектив, 1996] BDRip 720p, Mvo

salma3

164

В этой теме нет новых непрочитанных сообщений. Жена богача / The Rich Man's Wife [Триллер, детектив, 1996] HDRip-AVC, Mvo

salma3

130

В этой теме нет новых непрочитанных сообщений. Жена священника / The Preacher's Wife [фэнтези, драма, комедия, 1996] BDRip 1080p, Mvo

salma3

100

В этой теме нет новых непрочитанных сообщений. Хорошая жена / Правильная жена / The Good Wife [S01-07] [драма, криминал, детектив, 2009-2016] WEB-DLRip, Mvo [Universal Russia, Amedia]

salma3

519

В этой теме нет новых непрочитанных сообщений. Жена священника / The Preacher's Wife [фэнтези, драма, мелодрама, 1996] HDRip, Mvo [CTC]

salma3

187

В этой теме нет новых непрочитанных сообщений. Пропавшая жена Роберта Дёрста / The Lost Wife of Robert Durst (Ив Симоно / Yves Simoneau) [2017г., триллер, HDTV 720p] MVO

Alfredovich

218

В этой теме нет новых непрочитанных сообщений. Жена / The Wife [Драма, 2017] BDRip 720p, Dub [Лицензия]

salma3

120





Перейти:  

Для Мосгорсуда, Роскомнадзора и рекламодателей:: rstracker[собака]yandex.ru