Торрент файл
скачать торрент магнет ссылка Добавлен: 08 янв 2012, 22:42
Размер: 3.86 ГБ
Сидеров: 0
Личеров: 8
Автор

СообщениеДобавлено: 08 янв 2012, 22:42 

Не в сети
Супермодератор
Аватара пользователя
Дата регистрации:
11 апр 2010, 18:10
Спасибо: 5801 / 7
Сообщения: 56779
Даже не думай 2: Тень независимости


Перевод: Не требуется
Субтитры: Отсутствуют
Формат: DVD5, DVD Video, MPEG2, AC3
Страна: Россия
Режиссер: Руслан Бальтцер
Жанр: фантастика, триллер, комедия, криминал, приключения
Продолжительность: 01:37:30
Год выпуска: 2004

В ролях: Алексей Алексеев, Сергей Мухин, Алексей Панин, Артём Ткаченко, Dolphin, Настя Цветаева, Андрей Панин, Алексей Кортнев, Игорь Ганжа, Александр Семчев, Евгений Стычкин, Алексей Горбунов, Макс Лагашкин, Александр Робак, Сергей Рубан

Описание: Итак, тень независимости накрыла вчера ещё таких удачливых героев - Марата, Белого и Ника. И они вынуждены уносить ноги в первую попавшуюся страну, которой оказывается одна латышская колония в районе экватора". Но dolce vita под южным солнцем заканчивается вместе с остатками былого богатства. Друзья пытаются обогатиться всеми известными им способами. Но ни встреча за карточным столом с нефтянниками из Сибири, ни участие в боях без правил, ни попытка "гоп-стопа" в местном гей-клубе, ни знакомство с "латышскими гангстерами" не приносят желаемых результатов. Попытка выйти из ситуации выводит их на старого знакомого Лео. А там, где появляется Лео, жди неожиданностей..

Рейтинг на IMDB: 3.7/10
Рейтинг на Кинопоиск.RU: 4.483

Видео: 720x576,( 4:3 PAL), 25.000 fps, MPEG2 Video, ~5500kbps avg
Аудио: Русский 48.0 KHz, AC3 6ch, ~384 Kbps avg

Доп. информация: Произведено CD Land Records

Семпл Скачать


General
Complete name: VTS_01_1.VOB
Format: MPEG-PS
File size: 1 024 MiB
Duration: 25mn 52s
Overall bit rate: 5 532 Kbps

Video
ID: 224 (0xE0)
Format: MPEG Video
Format version: Version 2
Format profile: Main@Main
Format settings, BVOP: Yes
Format settings, Matrix: Default
Format settings, GOP: M=2, N=12
Duration: 25mn 52s
Bit rate mode: Variable
Bit rate: 5 038 Kbps
Nominal bit rate: 9 800 Kbps
Width: 720 pixels
Height: 576 pixels
Display aspect ratio: 4:3
Frame rate: 25.000 fps
Standard: PAL
Color space: YUV
Chroma subsampling: 4:2:0
Bit depth: 8 bits
Scan type: Interlaced
Scan order: Top Field First
Compression mode: Lossy
Bits/(Pixel*Frame): 0.486
Stream size: 932 MiB (91%)

Audio
ID: 128 (0x80)
Format: AC-3
Format/Info: Audio Coding 3
Mode extension: CM (complete main)
Duration: 25mn 52s
Bit rate mode: Constant
Bit rate: 384 Kbps
Channel(s): 6 channels
Channel positions: Front: L C R, Side: L R, LFE
Sampling rate: 48.0 KHz
Bit depth: 16 bits
Compression mode: Lossy
Stream size: 71.1 MiB (7%)










Поделиться:




реклама партнёра


Вернуться к началу
 Профиль Отправить личное сообщение  
 
   Похожие торренты   Автор   Торрент   Размер 
В этой теме нет новых непрочитанных сообщений. День независимости: Возрождение [Фантастика, боевик, приключения, 2016] Blu-Ray EUR, Dub [Лицензия]

marya111

142 | 93

41.8 ГБ

В этой теме нет новых непрочитанных сообщений. День независимости: Возрождение / Independence Day: Resurgence [фантастика, боевик, приключения, 2016] BDRip, Dub [Лицензия]

salma3

104 | 45

2.05 ГБ

В этой теме нет новых непрочитанных сообщений. День независимости: Возрождение / Independence Day: Resurgence [Фантастика, боевик, приключения, 2016] BDRemux 1080p, Dub [Лицензия]

marya111

311 | 214

27.19 ГБ

В этой теме нет новых непрочитанных сообщений. День независимости: Возрождение / Independence Day: Resurgence [фантастика, боевик, приключения, 2016] BDRip 720p, Dub [Лицензия]

salma3

30 | 18

7.12 ГБ

В этой теме нет новых непрочитанных сообщений. День независимости: Возрождение / Independence Day: Resurgence [Фантастика, боевик, приключения, 2016] BDRip 1080p, Dub [Лицензия]

marya111

239 | 38

14.56 ГБ

В этой теме нет новых непрочитанных сообщений. День независимости 2: Возрождение / Independence Day: Resurgence [фантастика, боевик, приключения, 2016] WEBRip 1080p, Dub [Трейлер]

salma3

2293 | 15

294.16 МБ

В этой теме нет новых непрочитанных сообщений. День независимости: Возрождение / Independence Day: Resurgence [фантастика, боевик, приключения, 2016] BDRip 720p, Dub [Лицензия]

marya111

446 | 28

5.76 ГБ


Начать новую тему Ответить на тему  [ 1 сообщение ] 




Для Мосгорсуда, Роскомнадзора и рекламодателей:: mosgorsud-torrent[собачка]yandex.ru