Торрент файл
скачать торрент магнет ссылка Добавлен: 08 янв 2012, 22:42
Размер: 4.3 ГБ
Сидеров: 1
Личеров: 4
Автор

СообщениеДобавлено: 08 янв 2012, 22:42 

Не в сети
Супермодератор
Аватара пользователя
Дата регистрации:
11 апр 2010, 18:10
Спасибо: 5801 / 7
Сообщения: 56779
Девочки из календаря / Calendar Girls


Перевод: Профессиональный (многоголосый, закадровый)
Субтитры: Английские
Формат: DVD5, DVD Video, MPEG2, AC3
Страна: США, Великобритания
Режиссер: Найджел Коул
Жанр: драма, комедия
Продолжительность: 01:40:16
Год выпуска: 2003

В ролях: Хелен Миррен, Джули Уолтерс, Джон Элдертон, Линда Бэссет, Аннетт Кросби, Филип Гленистер, Киаран Хайндс, Селия Имри, Джеральдин Джеймс, Пенелопа Уилтон

Описание: Фильм основан на реальных событиях. 1999-й год. Несколько почтенных домохозяек из провинциального Йоркшира хотят собрать денег на диван в больницу для комнаты родственников. Где лечат мужа одной из них.

Для этого они снимаются для календаря-ежегодника в обнажённом виде и календарь внезапно становится бестселлером!…


Рейтинг на IMDB: 6.9/10
Рейтинг МРАА: PG-13
Рейтинг КиноПоиск.RU: 7.527

Видео: 720x576 (PAL 16:9), 25,000 fps, MPEG-2 Video ~ 8400 kbps avg
Аудио #1: Английский: 48 kHz, AC3 Dolby Digital, 6 ch, ~ 448 kbps avg [Оригинал]
Аудио #2: Русский: 48 kHz, AC3 Dolby Digital, 6 ch, ~ 384 kbps avg [Профессиональный (многоголосый, закадровый)]

Доп.информация: Meню озвученное, статичное, на английском языке, с навигацией по эпизодам. Все кнопки функциональны.


Общее
Полное имя: D:\DVD\Девочки из календаря\VIDEO_TS\VTS_01_3.VOB
Формат: MPEG-PS
Размер файла: 1024 Мбайт
Продолжительность: 23 м.
Общий поток: 6097 Кбит/сек

Видео
Идентификатор: 224 (0xE0)
Формат: MPEG Video
Версия формата: Version 2
Профиль формата: Main@Main
Параметр BVOP формата: Да
Параметр матрицы формата: По умолчанию
Параметры GOP формата: M=3, N=12
Продолжительность: 23 м.
Вид битрейта: Переменный
Битрейт: 5143 Кбит/сек
Номинальный битрейт: 8400 Кбит/сек
Ширина: 720 пикс.
Высота: 576 пикс.
Соотношение сторон: 16:9
Частота кадров: 25,000 кадр/сек
Стандарт вещания: PAL
Цветовое пространство: YUV
Подвыборка цветности: 4:2:0
Битовая глубина: 8 бит
Тип развёртки: Прогрессивная
Порядок развёртки: Верхнее поле первое
Метод сжатия: С потерями
Бит/(Пиксели*Кадры): 0.496
Размер потока: 864 Мбайт (84%)

Аудио #1
Идентификатор: 128 (0x80)
Формат: AC-3
Формат/Информация: Audio Coding 3
Расширение режима: CM (complete main)
Продолжительность: 23 м.
Вид битрейта: Постоянный
Битрейт: 448 Кбит/сек
Канал(ы): 6 канала(ов)
Расположение каналов: Front: L C R, Side: L R, LFE
Частота: 48,0 КГц
Битовая глубина: 16 бит
Метод сжатия: С потерями
Задержка видео: -288 мс.
Размер потока: 75,2 Мбайт (7%)

Аудио #2
Идентификатор: 129 (0x81)
Формат: AC-3
Формат/Информация: Audio Coding 3
Расширение режима: CM (complete main)
Продолжительность: 23 м.
Вид битрейта: Постоянный
Битрейт: 384 Кбит/сек
Канал(ы): 6 канала(ов)
Расположение каналов: Front: L C R, Side: L R, LFE
Частота: 48,0 КГц
Битовая глубина: 16 бит
Метод сжатия: С потерями
Задержка видео: -288 мс.
Размер потока: 64,5 Мбайт (6%)

Текст
Идентификатор: 32 (0x20)
Формат: RLE
Формат/Информация: Run-length encoding

















Поделиться:




реклама партнёра


Вернуться к началу
 Профиль Отправить личное сообщение  
 
   Похожие торренты   Автор   Торрент   Размер 
В этой теме нет новых непрочитанных сообщений. Девочки из календаря / Calendar Girls [драма, комедия, 2003] DVDRip, Mvo [НТВ+]

salma3

31 | 2

1.46 ГБ

В этой теме нет новых непрочитанных сообщений. Swimsuit Calendar Girls 2016 / Девочки в Купальниках из Календаря 2016 (2016) WEB-DL

amadei

2 | 0

1.21 ГБ

В этой теме нет новых непрочитанных сообщений. Просьба не беспокоить / Do Not Disturb (Найджел Коул / Nigel Cole) [2016г., Великобритания, комедия, TVRip] VO

Alfredovich

70 | 10

492.03 МБ

В этой теме нет новых непрочитанных сообщений. Girls Love Girls 3 / Девочки Любят Девочек 3 (Sunlust Pictures) [2015 г., WEBRip]

max77777

1 | 0

1.47 ГБ

В этой теме нет новых непрочитанных сообщений. Девочки Гилмор / Gilmore Girls [s04] (Джеми Бэббит, Эми Шерман-Палладино, Крис Лонг) [2004, драма, комедия, семейный, WEB-DL 720p]

Dracon

2 | 11

29.68 ГБ

В этой теме нет новых непрочитанных сообщений. Девочки Гилмор / Gilmore Girls [s06] (Джеми Бэббит , Эми Шерман-Палладино, Крис Лонг) [2005, драма, комедия, семейный, WEB-DL 720p]

Dracon

6 | 6

29.68 ГБ

В этой теме нет новых непрочитанных сообщений. Девочки Гилмор / Gilmore Girls [s02] (Джеми Бэббит , Эми Шерман-Палладино, Крис Лонг) [2001, драма, комедия, семейный, DVD-Remux]

Dracon

0 | 6

36.02 ГБ


Начать новую тему Ответить на тему  [ 1 сообщение ] 




Для Мосгорсуда, Роскомнадзора и рекламодателей:: mosgorsud-torrent[собачка]yandex.ru