Торрент файл
скачать торрент магнет ссылка Добавлен: 08 янв 2012, 22:40
Размер: 4.35 ГБ
Сидеров: 4
Личеров: 3
Автор

СообщениеДобавлено: 08 янв 2012, 22:40 

Не в сети
Супермодератор
Аватара пользователя
Дата регистрации:
11 апр 2010, 18:10
Спасибо: 5963 / 7
Сообщения: 56762
Девушка с жемчужной сережкой / Girl with a Pearl Earring


Перевод: Профессиональный (многоголосый, закадровый)
Субтитры:Русские
Формат: DVD5, DVD Video, MPEG2, AC3
Страна: Великобритания, Люксембург
Режиссер: Питер Веббер
Жанр: драма, мелодрама, биография
Продолжительность: 01:35:51
Год выпуска: 2003

В ролях: Колин Ферт, Скарлетт Йоханссон, Том Уилкинсон, Джуди Парфитт, Киллиан Мерфи, Эсси Дэвис, Джоэнна Скэнлэн, Алакина Манн, Анна Попплуэлл

Описание: 1665 год, голландский город Дельфт. В дом художника Йоханнеса Вермеера приходит 16-летняя девушка Гриет, чтобы работать служанкой. Вскоре она обращает на себя внимание живописца, потому что, несмотря на свой юный возраст, Гриет тонко чувствует не только результат творчества, но и сам процесс, механизм создания полотен, которым суждено будет жить в веках. Однажды Вермеер обращается с просьбой к Гриет — позировать ему для новой картины…

Рейтинг на IMDB: 7.1/10
Рейтинг МРАА: PG-13
Рейтинг КиноПоиск.RU: 7.392

Видео: 720x576 (PAL 16:9), 25,000 fps, MPEG-2 Video ~ 9800 kbps avg
Аудио #1: Русский: 48 kHz, AC3 Dolby Digital, 6 ch, ~ 448 kbps avg [Профессиональный (многоголосый, закадровый)]
Аудио #2: Английский: 48 kHz, AC3 Dolby Digital, 6 ch, ~ 448 kbps avg [Оригинал]

Доп.информация: [Лицензионное издание «CP-Digital»]
Meню озвученное, частично анимированное, на русском языке, с навигацией по эпизодам. Все кнопки функциональны.

Слоган: «Красота вдохновляет навязчивую идею.»


General
Complete name: D:\DVD\Девушка с жемчужной сережкой\VIDEO_TS\VTS_04_2.VOB
Format: MPEG-PS
File size: 1 024 MiB
Duration: 22mn 28s
Overall bit rate: 6 371 Kbps

Video
ID: 224 (0xE0)
Format: MPEG Video
Format version: Version 2
Format profile: Main@Main
Format settings, BVOP: Yes
Format settings, Matrix: Default
Format settings, GOP: M=3, N=12
Duration: 22mn 28s
Bit rate mode: Variable
Bit rate: 5 348 Kbps
Nominal bit rate: 9 800 Kbps
Width: 720 pixels
Height: 576 pixels
Display aspect ratio: 16:9
Frame rate: 25.000 fps
Standard: Component
Color space: YUV
Chroma subsampling: 4:2:0
Bit depth: 8 bits
Scan type: Progressive
Scan order: Top Field First
Bits/(Pixel*Frame): 0.516
Stream size: 859 MiB (84%)

Audio #1
ID: 128 (0x80)
Format: AC-3
Format/Info: Audio Coding 3
Mode extension: CM (complete main)
Duration: 22mn 28s
Bit rate mode: Constant
Bit rate: 448 Kbps
Channel(s): 6 channels
Channel positions: Front: L C R, Side: L R, LFE
Sampling rate: 48.0 KHz
Bit depth: 16 bits
Video delay: -580ms
Stream size: 72.0 MiB (7%)

Audio #2
ID: 129 (0x81)
Format: AC-3
Format/Info: Audio Coding 3
Mode extension: CM (complete main)
Duration: 22mn 28s
Bit rate mode: Constant
Bit rate: 448 Kbps
Channel(s): 6 channels
Channel positions: Front: L C R, Side: L R, LFE
Sampling rate: 48.0 KHz
Bit depth: 16 bits
Video delay: -624ms
Stream size: 72.0 MiB (7%)

Text
ID: 32 (0x20)
Format: RLE
Format/Info: Run-length encoding
Video delay: 1s 880ms



















Поделиться:




реклама партнёра


Вернуться к началу
 Профиль Отправить личное сообщение  
 
   Похожие торренты   Автор   Торрент   Размер 
В этой теме нет новых непрочитанных сообщений. Девушка-король / The Girl King Драма, мелодрама, биография, история[, 2015] BDRip 1080p, Avo

salma3

27 | 5

10.77 ГБ

В этой теме нет новых непрочитанных сообщений. Девушка-король / The Girl King [Драма, мелодрама, биография, история, 2015] BDRip 720p, Avo

salma3

49 | 32

5.6 ГБ

В этой теме нет новых непрочитанных сообщений. Солдатская девушка / Soldier's Girl [Драма, мелодрама, криминал, 2003] WEB-DL 1080p, Dvo

salma3

38 | 1

4.91 ГБ

В этой теме нет новых непрочитанных сообщений. Девушка на мотоцикле / The Girl on a Motorcycle [мелодрама, 1968] DVD5, Dvo

salma3

28 | 28

4.37 ГБ

В этой теме нет новых непрочитанных сообщений. Девушка из Дании / The Danish Girl [драма, биография, 2015] BDRip 720p, Dub+Sub [iTunes]

salma3

714 | 86

6.09 ГБ

В этой теме нет новых непрочитанных сообщений. Девушка в поезде / The Girl on the Train [Триллер, драма, детектив, 2016] DVD5, Dub

salma3

63 | 32

4.38 ГБ

В этой теме нет новых непрочитанных сообщений. Девушка / The Girl [драма, мелодрама, 2000] DVDRip-AVC, Avo

salma3

27 | 7

2.05 ГБ


Начать новую тему Ответить на тему  [ 1 сообщение ] 




Для Мосгорсуда, Роскомнадзора и рекламодателей:: mosgorsud-torrent[собачка]yandex.ru