Торрент файл
скачать торрент магнет ссылка Добавлен: 08 янв 2012, 22:39
Размер: 4.23 ГБ
Сидеров: 0
Личеров: 4
Автор

СообщениеДобавлено: 08 янв 2012, 22:39 

Не в сети
Супермодератор
Аватара пользователя
Дата регистрации:
11 апр 2010, 18:10
Спасибо: 5799 / 7
Сообщения: 56779
Созданы друг для друга / Made for Each Other

Перевод: Профессиональный (многоголосый, закадровый)
Субтитры: Русские
Формат: DVD5, DVD Video, MPEG2, AC3
Страна: США
Режиссер: Дэрил Голдберг
Жанр: Комедия
Продолжительность: 01:33:27
Год выпуска: 2009

В ролях: Бижу Филлипс, Патрик Варбертон, Дэнни Мастерсон, Кристофер Мастерсон, Лорен Джерман, Сэмм Ливайн, Кайл Ховард, Джордж Сигал, Лесли Хендрикс, Адриан Мартинез ...

Описание: У всех вокруг есть секс. У лучшего друга, и у мамы, у пенсионеров из соседнего дома и даже у соседской собаки!
Только Ден вот уже ТРИ МЕСЯЦА не может заняться сексом… с собственной женой! Что же случилось?
Они по-прежнему любят друг друга, но секса нет! Как же привлечь жену к этому увлекательному занятию?
И главное как устоять против соблазна, когда самая сексапильная в мире начальница делает тебе недвусмысленные намеки?


Рейтинг на КиноПоиск: 7.100 (36)
Рейтинг на IMDb: 4.5/10

Видео: 720X576 (PAL16:9), 25.000fps, MPEG-2 Video, ~ 8 000Kbps avg
Аудио#1: Русский 48.0KHz, AC-3, 6 ch, ~ 384Kbps avg[Профессиональный (многоголосый, закадровый)][/field]
Аудио#2: Русский 48.0KHz, AC-3, 2 ch, ~ 192Kbps avg[Профессиональный (многоголосый, закадровый)]
Аудио#3: Английский 48.0KHz, AC-3, 2 ch, ~ 192Kbps avg[Оригинал]

Трейлер к фильму

Общее
Полное имя: D:\загрузка\made_for_each_other_[tfile.ru]\VIDEO_TS\VTS_02_3.VOB
Формат: MPEG-PS
Размер файла: 1024 Мбайт
Продолжительность: 24 м.
Общий поток: 5939 Кбит/сек

Видео
Идентификатор: 224 (0xE0)
Формат: MPEG Video
Версия формата: Version 2
Профиль формата: Main@Main
Параметр BVOP формата: Да
Параметр матрицы формата: По умолчанию
Параметры GOP формата: M=3, N=12
Продолжительность: 24 м.
Вид битрейта: Переменный
Битрейт: 5052 Кбит/сек
Номинальный битрейт: 8000 Кбит/сек
Ширина: 720 пикс.
Высота: 576 пикс.
Соотношение сторон: 16:9
Частота кадров: 25,000 кадр/сек
Стандарт вещания: PAL
Цветовое пространство: YUV
Подвыборка цветности: 4:2:0
Битовая глубина: 8 бит
Тип развёртки: Чересстрочная
Порядок развёртки: Верхнее поле первое
Метод сжатия: С потерями
Бит/(Пиксели*Кадры): 0.487
Размер потока: 871 Мбайт (85%)

Аудио #1
Идентификатор: 128 (0x80)
Формат: AC-3
Формат/Информация: Audio Coding 3
Расширение режима: CM (complete main)
Продолжительность: 24 м.
Вид битрейта: Постоянный
Битрейт: 384 Кбит/сек
Канал(ы): 6 канала(ов)
Расположение каналов: Front: L C R, Side: L R, LFE
Частота: 48,0 КГц
Битовая глубина: 16 бит
Метод сжатия: С потерями
Задержка видео: -352 мс.
Размер потока: 66,2 Мбайт (6%)

Аудио #2
Идентификатор: 129 (0x81)
Формат: AC-3
Формат/Информация: Audio Coding 3
Расширение режима: CM (complete main)
Продолжительность: 24 м.
Вид битрейта: Постоянный
Битрейт: 192 Кбит/сек
Канал(ы): 2 канала(ов)
Расположение каналов: Front: L R
Частота: 48,0 КГц
Битовая глубина: 16 бит
Метод сжатия: С потерями
Задержка видео: -320 мс.
Размер потока: 33,1 Мбайт (3%)

Аудио #3
Идентификатор: 130 (0x82)
Формат: AC-3
Формат/Информация: Audio Coding 3
Расширение режима: CM (complete main)
Продолжительность: 24 м.
Вид битрейта: Постоянный
Битрейт: 192 Кбит/сек
Канал(ы): 2 канала(ов)
Расположение каналов: Front: L R
Частота: 48,0 КГц
Битовая глубина: 16 бит
Метод сжатия: С потерями
Задержка видео: -320 мс.
Размер потока: 33,1 Мбайт (3%)

Текст
Идентификатор: 32 (0x20)
Формат: RLE
Формат/Информация: Run-length encoding
Задержка видео: 2 с. 640 мс.

Меню

Сценарий: Эрик Лорд
Продюсер: Эндрю Ван Ден Хутен, Кэрол Мастерсон, Кристофер Мастерсон, ...
Оператор: Уильям М. Миллер
Композитор: Райан Шор
Художник: Брайан Ржепка, Ричард Пит, Майкл Бевинс, ...
Монтаж: Дэрил Голдберг
Бюджет: $4 000 000
Премьера (мир): 25 апреля 2009
Релиз на DVD: 22 февраля 2011, «Lizard Cinema Trade», ...





















Поделиться:




реклама партнёра


Вернуться к началу
 Профиль Отправить личное сообщение  
 
   Похожие торренты   Автор   Торрент   Размер 
В этой теме нет новых непрочитанных сообщений. Пожилая и молодая пара любят друг друга (2010) CamRip

Max79

121 | 8

142.39 МБ

В этой теме нет новых непрочитанных сообщений. Неужели мы поняли друг друга? / Tamam miyiz? (Чаган Ырмак) [Драма, 2013] DVDRip, mvo

Dracon

2 | 3

1.46 ГБ

В этой теме нет новых непрочитанных сообщений. Мы так любили друг друга / C'eravamo tanto amati (Этторе Скола / Ettore Scola) [1974г., драма, DVDRip] avo

Alfredovich

33 | 4

2.18 ГБ

В этой теме нет новых непрочитанных сообщений. Друг мой / О, мой друг! / Oh My Friend [Мелодрама, 2011] HDRip, Mvo [Red Media]

salma3

1 | 2

1.46 ГБ

В этой теме нет новых непрочитанных сообщений. Man Made - Man Made [1972, Progressive, Psychedelic Rock, MP3]

PriZraK

0 | 1

85.35 МБ

В этой теме нет новых непрочитанных сообщений. Не может быть, Джоуз / No Way Jose (Адам Голдберг) [комедия, 2015] WEB-DL 720p, Mvo [iTunes]

Dracon

548 | 50

3.11 ГБ

В этой теме нет новых непрочитанных сообщений. Не может быть, Джоуз / No Way Jose (Адам Голдберг) [комедия, 2015] WEB-DL 1080p, Mvo [iTunes]

Dracon

353 | 63

3.44 ГБ


Начать новую тему Ответить на тему  [ 1 сообщение ] 




Для Мосгорсуда, Роскомнадзора и рекламодателей:: mosgorsud-torrent[собачка]yandex.ru