Торрент файл
скачать торрент магнет ссылка Добавлен: 08 янв 2012, 22:38
Размер: 12.59 ГБ
Сидеров: 9
Личеров: 7
Автор

СообщениеДобавлено: 08 янв 2012, 22:38 

Не в сети
Супермодератор
Аватара пользователя
Дата регистрации:
11 апр 2010, 18:10
Спасибо: 5801 / 7
Сообщения: 56779
Бетховен [Трилогия] / Beethoven [Trilogу]


Бетховен / Beethoven

Перевод: Профессиональный (многоголосый, закадровый)
Субтитры:Русские, английские
Формат: DVD5, DVD Video, MPEG2, AC3
Страна: США
Режиссер: Брайан Левант
Жанр: Драма, комедия, семейный
Продолжительность: 01:23:19
Год выпуска: 1992

В ролях: Чарльз Гродин, Бонни Хант, Дин Джонс, Николь Том, Кристофер Кастиль, Сара Роуз Карр, Оливер Плэтт, Стенли Туччи, Дэвид Духовны, Патриция Хитон ...

Описание: Герой фильма — не великий композитор, а случайно названный его именем симпатяга-сенбернар.
Попав еще щенком в приютившую его семью, пес быстро подружился с детьми и их матерью —
только отец поглядывал на беспокойного домочадца косо.


Рейтинг на КиноПоиск: 7.338 (9 954)
Рейтинг на IMDb: 5.2/10
Рейтинг IMDb: PG

Видео: 720X576 (PAL 16:9), 25.000fps, MPEG-2 Video, ~ 9 800Kbps avg
Аудио#1:Русский 48.0KHz, AC-3, 2 ch, ~ 384Kbps avg [Профессиональный (многоголосый, закадровый)(Премьер Видео)]
Аудио#2:Русский 48.0KHz, AC-3, 2 ch, ~ 384Kbps avg [Авторский (одноголосый) - А.Гаврилов]
Аудио#3:Английский 48.0KHz, AC-3, 2 ch, ~ 192Kbps avg [Оригинал]

Трейлер к фильму

Общее
Полное имя: D:\загрузка\beethoven_[tfile.ru]\beethoven\VIDEO_TS\VTS_01_2.VOB
Формат: MPEG-PS
Размер файла: 1024 Мбайт
Продолжительность: 20 м.
Общий поток: 7110 Кбит/сек

Видео
Идентификатор: 224 (0xE0)
Формат: MPEG Video
Версия формата: Version 2
Профиль формата: Main@Main
Параметр BVOP формата: Да
Параметр матрицы формата: По умолчанию
Параметры GOP формата: M=3, N=12
Продолжительность: 20 м.
Вид битрейта: Переменный
Битрейт: 6009 Кбит/сек
Номинальный битрейт: 9800 Кбит/сек
Ширина: 720 пикс.
Высота: 576 пикс.
Соотношение сторон: 16:9
Частота кадров: 25,000 кадр/сек
Стандарт вещания: PAL
Цветовое пространство: YUV
Подвыборка цветности: 4:2:0
Битовая глубина: 8 бит
Тип развёртки: Прогрессивная
Порядок развёртки: Верхнее поле первое
Метод сжатия: С потерями
Бит/(Пиксели*Кадры): 0.580
Размер потока: 865 Мбайт (84%)

Аудио #1
Идентификатор: 128 (0x80)
Формат: AC-3
Формат/Информация: Audio Coding 3
Расширение режима: CM (complete main)
Продолжительность: 20 м.
Вид битрейта: Постоянный
Битрейт: 384 Кбит/сек
Канал(ы): 2 канала(ов)
Расположение каналов: Front: L R
Частота: 48,0 КГц
Битовая глубина: 16 бит
Метод сжатия: С потерями
Задержка видео: -144 мс.
Размер потока: 55,3 Мбайт (5%)

Аудио #2
Идентификатор: 129 (0x81)
Формат: AC-3
Формат/Информация: Audio Coding 3
Расширение режима: CM (complete main)
Продолжительность: 20 м.
Вид битрейта: Постоянный
Битрейт: 384 Кбит/сек
Канал(ы): 2 канала(ов)
Расположение каналов: Front: L R
Частота: 48,0 КГц
Битовая глубина: 16 бит
Метод сжатия: С потерями
Задержка видео: -144 мс.
Размер потока: 55,3 Мбайт (5%)

Аудио #3
Идентификатор: 130 (0x82)
Формат: AC-3
Формат/Информация: Audio Coding 3
Профиль формата: Dolby Digital
Расширение режима: CM (complete main)
Продолжительность: 20 м.
Вид битрейта: Постоянный
Битрейт: 192 Кбит/сек
Канал(ы): 2 канала(ов)
Расположение каналов: Front: L R
Частота: 48,0 КГц
Битовая глубина: 16 бит
Метод сжатия: С потерями
Задержка видео: -112 мс.
Размер потока: 27,7 Мбайт (3%)

Текст #1
Идентификатор: 32 (0x20)
Формат: RLE
Формат/Информация: Run-length encoding
Задержка видео: 2 с. 180 мс.

Текст #2
Идентификатор: 33 (0x21)
Формат: RLE
Формат/Информация: Run-length encoding
Задержка видео: 2 с. 180 мс.

Меню

Сценарий: Джон Хьюз, Эми Холден Джонс
Продюсер: Майкл С. Гросс, Шелдон Кан, Джо Медьяк, ...
Оператор: Виктор Дж. Кемпер
Композитор: Рэнди Эделмен, Майкл Тавера
Художник: Алекс Тавуларис, Чарльз Брин, Глория Грешам, ...
Монтаж: Уильям Д. Гордин, Шелдон Кан
Сборы в США: $57 114 049
Сборы в мире: + $90 100 000 = $147 214 049
Зрители: США13.8 млн, Франция2.49 млн, Германия2.41 млн, ...
Премьера (мир): 3 апреля 1992
























Бетховен 2 / Beethoven's 2nd


Перевод: Профессиональный (многоголосый, закадровый)
Субтитры: Русские, английские
Формат: DVD5, DVD Video, MPEG2, AC3
Страна: США
Режиссер: Род Дэниэл
Жанр: Мелодрама, комедия, семейный
Продолжительность: 01:24:48
Год выпуска: 1993

В ролях: Чарльз Гродин, Бонни Хант, Николь Том, Кристофер Кастиль, Сара Роуз Карр, Деби Мейзар, Крис Пенн, Эшли Хэмилтон, Дэнни Мастерсон, Катрин Рейтман ...

Описание: Псу, случайно названному именем великого композитора, не сразу удалось завоевать любовь
главы семьи, но зато теперь они — настоящие друзья. Зрителям придется поволноваться, когда Бетховен будет попадать
в опасные ситуации, зрителей насмешат его выходки и удивит его
сообразительность, а суть — в том, что не только у людей бывает золотое сердце…


Рейтинг на КиноПоиск; 6.725 (3 283)
Рейтинг на IMDb: 4.2/10
Рейтинг MPAA: PG

Видео:720X576 (PAL 16:9), 25.000fps, MPEG-2 Video, ~ 9 800Kbps avg
Аудио#1:Русский 48.0KHz, AC-3, 2 ch, ~ 384Kbps avg[Профессиональный (многоголосый, закадровый)(Премьер Видео)]
Аудио#2:Русский 48.0KHz, AC-3, 2 ch, ~ 384Kbps avg[Авторский (одноголосый) - А.Гаврилов]
Аудио#3:Английский 48.0KHz, AC-3, 2 ch, ~ 192Kbps avg[Оригинал]
Аудио#4:Русский 48.0KHz, AC-3, 1 ch, ~ 192Kbps avg[Архивный дубляж ("Ист-Вест"/"Союзмультфильм")]

Трейлер к фильму

Награды

Слоган: «И вновь семья Ньютонов испытывает все «радости» собачьей жизни.»
Общее
Полное имя: D:\загрузка\beethoven_[tfile.ru]\beethoven's 2nd\VIDEO_TS\VTS_01_3.VOB
Формат: MPEG-PS
Размер файла: 1024 Мбайт
Продолжительность: 20 м.
Общий поток: 7041 Кбит/сек

Видео
Идентификатор: 224 (0xE0)
Формат: MPEG Video
Версия формата: Version 2
Профиль формата: Main@Main
Параметр BVOP формата: Да
Параметр матрицы формата: По умолчанию
Параметры GOP формата: M=3, N=12
Продолжительность: 20 м.
Вид битрейта: Переменный
Битрейт: 5749 Кбит/сек
Номинальный битрейт: 9800 Кбит/сек
Ширина: 720 пикс.
Высота: 576 пикс.
Соотношение сторон: 16:9
Частота кадров: 25,000 кадр/сек
Стандарт вещания: PAL
Цветовое пространство: YUV
Подвыборка цветности: 4:2:0
Битовая глубина: 8 бит
Тип развёртки: Прогрессивная
Порядок развёртки: Верхнее поле первое
Метод сжатия: С потерями
Бит/(Пиксели*Кадры): 0.554
Размер потока: 836 Мбайт (82%)

Аудио #1
Идентификатор: 128 (0x80)
Формат: AC-3
Формат/Информация: Audio Coding 3
Расширение режима: CM (complete main)
Продолжительность: 20 м.
Вид битрейта: Постоянный
Битрейт: 384 Кбит/сек
Канал(ы): 2 канала(ов)
Расположение каналов: Front: L R
Частота: 48,0 КГц
Битовая глубина: 16 бит
Метод сжатия: С потерями
Задержка видео: -504 мс.
Размер потока: 55,8 Мбайт (5%)

Аудио #2
Идентификатор: 129 (0x81)
Формат: AC-3
Формат/Информация: Audio Coding 3
Расширение режима: CM (complete main)
Продолжительность: 20 м.
Вид битрейта: Постоянный
Битрейт: 384 Кбит/сек
Канал(ы): 2 канала(ов)
Расположение каналов: Front: L R
Частота: 48,0 КГц
Битовая глубина: 16 бит
Метод сжатия: С потерями
Задержка видео: -504 мс.
Размер потока: 55,8 Мбайт (5%)

Аудио #3
Идентификатор: 130 (0x82)
Формат: AC-3
Формат/Информация: Audio Coding 3
Профиль формата: Dolby Digital
Расширение режима: CM (complete main)
Продолжительность: 20 м.
Вид битрейта: Постоянный
Битрейт: 192 Кбит/сек
Канал(ы): 2 канала(ов)
Расположение каналов: Front: L R
Частота: 48,0 КГц
Битовая глубина: 16 бит
Метод сжатия: С потерями
Задержка видео: -472 мс.
Размер потока: 27,9 Мбайт (3%)

Аудио #4
Идентификатор: 131 (0x83)
Формат: AC-3
Формат/Информация: Audio Coding 3
Расширение режима: CM (complete main)
Продолжительность: 20 м.
Вид битрейта: Постоянный
Битрейт: 192 Кбит/сек
Канал(ы): 1 канал
Расположение каналов: Front: C
Частота: 48,0 КГц
Битовая глубина: 16 бит
Метод сжатия: С потерями
Задержка видео: -472 мс.
Размер потока: 27,9 Мбайт (3%)

Текст #1
Идентификатор: 32 (0x20)
Формат: RLE
Формат/Информация: Run-length encoding

Текст #2
Идентификатор: 33 (0x21)
Формат: RLE
Формат/Информация: Run-length encoding

Меню

Сценарий: Джон Хьюз, Эми Холден Джонс, Лен Блум
Продюсер: Майкл С. Гросс, Шелдон Кан, Джо Медьяк, ...
Оператор: Билл Батлер
Композитор: Рэнди Эделмен
Художник: Лоуренс Миллер, Чарльз Брин, Эйприл Ферри, ...
Монтаж: Уильям Д. Гордин, Шелдон Кан
Бюджет: $15 000 000
Сборы в США: $53 443 066
Сборы в мире: + $64 800 000 = $118 243 066
Зрители: США12.8 млн, Германия2.53 млн, Франция1.61 млн, ...
Премьера (мир): 16 декабря 1993
























Бетховен 3 / Beethoven's 3rd


Перевод: Профессиональный (многоголосый, закадровый)
Субтитры: Отсутствуют
Формат: DVD5, DVD Video, MPEG2, AC3
Страна: США
Режиссер: Дэвид М. Эванс
Жанр: Комедия, семейный
Продолжительность: 01:34:02
Год выпуска: 2000

В ролях: Джадж Райнхолд, Джулия Суини, Джо Пихлер, Михаэлла Галло, Mike Ciccolini, Джеймс Марш, Даниэль Уэйнер, Фрэнк Горшин, Холли Митчел, Марк Карлтон ...

Описание: В третьей части приключений знаменитого сенбернара забавный «песик» отправляется в головокружительное путешествие.
Для главы семьи Ньютонов, Ричарда, долгая поездка к родственникам — увлекательнейшее занятие.
Для его шумной семьи — утомительное, невыносимо скучное мероприятие.
Однако все разительным образом меняется, когда «на борту» обнаруживается новый лохматый пассажир с печальными глазами.
Им, как ни странно, оказывается наш старый друг Бетховен, который, не прочь «прошвырнуться» по стране и посмотреть мир.


Рейтинг на КиноПоиск: 4.848 (1 054)
Рейтинг на IMDb: 3.4/10
Рейтинг MPAA: G

Видео:720X576 (PAL 16:9), 25.000fps, MPEG-2 Video, ~ 7 700Kbps avg
Аудио#1:Русский 48.0KHz, AC-3, 2 ch, ~ 448Kbps avg[Профессиональный (многоголосый, закадровый)]
Аудио#2:Английский 48.0KHz, AC-3, 2 ch, ~ 448Kbps avg[Оригинал]

Слоган:«Самый обаятельный пёс в мире собирается в своё самое большое путешествие!»

Трейлер к фильму

Общее
Полное имя: D:\загрузка\beethoven_[tfile.ru]\beethoven's 3rd\VIDEO_TS\VTS_01_3.VOB
Формат: MPEG-PS
Размер файла: 1024 Мбайт
Продолжительность: 21 м.
Общий поток: 6679 Кбит/сек

Видео
Идентификатор: 224 (0xE0)
Формат: MPEG Video
Версия формата: Version 2
Профиль формата: Main@Main
Параметр BVOP формата: Да
Параметр матрицы формата: По умолчанию
Параметры GOP формата: M=3, N=12
Продолжительность: 21 м.
Вид битрейта: Переменный
Битрейт: 5650 Кбит/сек
Номинальный битрейт: 7700 Кбит/сек
Ширина: 720 пикс.
Высота: 576 пикс.
Соотношение сторон: 16:9
Частота кадров: 25,000 кадр/сек
Стандарт вещания: PAL
Цветовое пространство: YUV
Подвыборка цветности: 4:2:0
Битовая глубина: 8 бит
Тип развёртки: Чересстрочная
Порядок развёртки: Верхнее поле первое
Метод сжатия: С потерями
Бит/(Пиксели*Кадры): 0.545
Размер потока: 866 Мбайт (85%)

Аудио #1
Идентификатор: 128 (0x80)
Формат: AC-3
Формат/Информация: Audio Coding 3
Расширение режима: CM (complete main)
Продолжительность: 21 м.
Вид битрейта: Постоянный
Битрейт: 448 Кбит/сек
Канал(ы): 2 канала(ов)
Расположение каналов: Front: L R
Частота: 48,0 КГц
Битовая глубина: 16 бит
Метод сжатия: С потерями
Задержка видео: -672 мс.
Размер потока: 68,7 Мбайт (7%)

Аудио #2
Идентификатор: 129 (0x81)
Формат: AC-3
Формат/Информация: Audio Coding 3
Расширение режима: CM (complete main)
Продолжительность: 21 м.
Вид битрейта: Постоянный
Битрейт: 448 Кбит/сек
Канал(ы): 2 канала(ов)
Расположение каналов: Front: L R
Частота: 48,0 КГц
Битовая глубина: 16 бит
Метод сжатия: С потерями
Задержка видео: -672 мс.
Размер потока: 68,7 Мбайт (7%)

Меню

Сценарий: Джон Хьюз, Эми Холден Джонс, Джефф Шечтер
Продюсер: Дэвид Бикслер, Келли Коноп
Оператор: Джон Б. Аронсон, Тед Моррис
Композитор: Филип Гиффин
Художник: Честер Каженски, Марк Дабе, Бонни Стауч, ...
Монтаж: Гарри Керамидас
Премьера (мир): 25 июля 2000



















Поделиться:




реклама партнёра


Вернуться к началу
 Профиль Отправить личное сообщение  
 
   Похожие торренты   Автор   Торрент   Размер 
В этой теме нет новых непрочитанных сообщений. Трудный Ребенок: Трилогия / Problem Child: Trilogy (Дэннис Дуган,Брайан Левант,Грег Биман) [1990-1995, Комедия, Семейный, DVDRip]

marya111

0 | 0

4.27 ГБ

В этой теме нет новых непрочитанных сообщений. Полицейский 2000 года / TC 2000 [Фантастика, боевик, 1993] BDRip 720p, Dvo+2Avo

salma3

17 | 4

4.81 ГБ

В этой теме нет новых непрочитанных сообщений. Лучшее лето / Den bästa sommaren [драма, комедия, семейный, 2000] DVDRip, Avo

salma3

68 | 3

1.35 ГБ

В этой теме нет новых непрочитанных сообщений. Рождественское приключение Бетховена / Beethoven's Christmas Adventure [фэнтези, комедия, 2011] WEBDLRip, Dub

salma3

11 | 3

1.46 ГБ

В этой теме нет новых непрочитанных сообщений. Капитан Рон / Captain Ron [комедия, приключения, семейный, 1992] WEB-DL 720p, Mvo+Dvo+Avo+Sub

salma3

24 | 8

3.89 ГБ

В этой теме нет новых непрочитанных сообщений. Три ниндзя / 3 Ninjas [комедия, семейный, спорт, 1992] HDRip, Mvo

salma3

50 | 5

1.45 ГБ

В этой теме нет новых непрочитанных сообщений. Кунг-фу Панда:Трилогия / Kung Fu Panda:Trilogy (Марк Осборн, Джон Стивенсон,Алессандро Карлони, Дженнифер Ю) [2008-2016, Мультфильм, боевик, комедия, приключения, семейный , BDRip 1080p] [DD5.1] [Dub Rus , Ukr , Eng]+[Sub Rus , Ukr , Eng][

Враг Нароода

3 | 7

27.41 ГБ


Начать новую тему Ответить на тему  [ 1 сообщение ] 




Для Мосгорсуда, Роскомнадзора и рекламодателей:: mosgorsud-torrent[собачка]yandex.ru