Торрент файл
скачать торрент магнет ссылка Добавлен: 08 янв 2012, 22:37
Размер: 4.37 ГБ
Сидеров: 3
Личеров: 4
Автор

СообщениеДобавлено: 08 янв 2012, 22:37 

Не в сети
Супермодератор
Аватара пользователя
Дата регистрации:
11 апр 2010, 18:10
Спасибо: 5801 / 7
Сообщения: 56779
Поменяться местами / Trading Places

Перевод: Профессиональный (многоголосый, закадровый)
Субтитры: Русские, английские
Формат: DVD5, DVD Video, MPEG2, AC3
Страна: США
Режиссер: Джон Лэндис
Жанр: комедия
Продолжительность: 01:56:21
Год выпуска: 1983

В ролях: Дэн Эйкройд, Эдди Мёрфи, Ральф Беллами, Дон Амичи, Денхолм Эллиот, Джейми Ли Кёртис, Кристин Холби, Пол Глисон, Альфред Дрэйк, Бо Диддли

Описание: Жизнь респектабельного бизнесмена Луиса Уинтропа Третьего, управляющего богатейшей компании с Уолл-Стрит, круто меняется после того, как его боссы, братья Дьюк, заключают необычное пари. Один из братьев посчитал, что управлять компанией может кто угодно, даже самый отъявленный и необразованный проходимец.

Поставив на кон доллар, братья находят для своего эксперимента уличного мошенника Билли Рэя Валентайна, которому и предлагают возглавить компанию вместо Уинтропа. Эксцентрическая парочка Дьюков и не подозревает, что, поменяв местами проходимца и крупного бизнесмена, они рискуют гораздо больше, чем могли бы себе представить.


Рейтинг на IMDB: 7.4/10
Рейтинг КиноПоиск.RU: 7.797
Рейтинг MPAA: R

Видео: 720x480 (NTSC 16:9 ), MPEG 2 Video, 23,976 fps, ~8664 kbps avg
Аудио #1: Русский 48 kHz, Dolby AC3, 2 ch, ~192 kbps avg [Профессиональный (многоголосый, закадровый)]
Аудио #2: Русский 48 kHz, Dolby AC3, 2 ch, ~192 kbps avg [Авторский (одноголосый), (Володарский)]
Аудио #3: Русский 48 kHz, Dolby AC3, 6 ch, ~384 kbps avg [Авторский (одноголосый), (Гаврилов)]
Аудио #4: Английский 48 kHz, Dolby AC3, 6 ch, ~384 kbps avg [Оригинал]

Доп. информация: Меню озвученное, частично анимированное, на русском языке, с навигацией по эпизодам, все кнопки функциональны.

Слоган: «Они не только разбогатеют... но и отомстят.»















Общее
Полное имя: D:\Моя\Раздача\pomenyatsa_mectami_[tfile.ru]\VIDEO_TS\VTS_01_1.VOB
Формат: MPEG-PS
Размер файла: 1024 Мбайт
Продолжительность: 26 м.
Общий поток: 5360 Кбит/сек

Видео
Идентификатор: 224 (0xE0)
Формат: MPEG Video
Версия формата: Version 2
Профиль формата: Main@Main
Параметр BVOP формата: Да
Параметр матрицы формата: По умолчанию
Продолжительность: 26 м.
Вид битрейта: Переменный
Битрейт: 4101 Кбит/сек
Номинальный битрейт: 8664 Кбит/сек
Ширина: 720 пикс.
Высота: 480 пикс.
Соотношение сторон: 16:9
Частота кадров: 23,976 кадр/сек
Стандарт вещания: NTSC
Цветовое пространство: YUV
Подвыборка цветности: 4:2:0
Битовая глубина: 8 бит
Тип развёртки: Прогрессивная
Порядок развёртки: 2:3 Pulldown
Метод сжатия: С потерями
Бит/(Пиксели*Кадры): 0.495
Размер потока: 784 Мбайт (77%)

Аудио #1
Идентификатор: 189 (0xBD)-128 (0x80)
Формат: AC-3
Формат/Информация: Audio Coding 3
Расширение режима: CM (complete main)
Режим смешивания: DVD-Video
Продолжительность: 26 м.
Вид битрейта: Постоянный
Битрейт: 192 Кбит/сек
Канал(ы): 2 канала(ов)
Расположение каналов: Front: L R
Частота: 48,0 КГц
Битовая глубина: 16 бит
Метод сжатия: С потерями
Размер потока: 36,7 Мбайт (4%)

Аудио #2
Идентификатор: 189 (0xBD)-129 (0x81)
Формат: AC-3
Формат/Информация: Audio Coding 3
Расширение режима: CM (complete main)
Режим смешивания: DVD-Video
Продолжительность: 26 м.
Вид битрейта: Постоянный
Битрейт: 192 Кбит/сек
Канал(ы): 2 канала(ов)
Расположение каналов: Front: L R
Частота: 48,0 КГц
Битовая глубина: 16 бит
Метод сжатия: С потерями
Размер потока: 36,7 Мбайт (4%)

Аудио #3
Идентификатор: 189 (0xBD)-130 (0x82)
Формат: AC-3
Формат/Информация: Audio Coding 3
Расширение режима: CM (complete main)
Режим смешивания: DVD-Video
Продолжительность: 26 м.
Вид битрейта: Постоянный
Битрейт: 384 Кбит/сек
Канал(ы): 6 канала(ов)
Расположение каналов: Front: L C R, Side: L R, LFE
Частота: 48,0 КГц
Битовая глубина: 16 бит
Метод сжатия: С потерями
Размер потока: 73,4 Мбайт (7%)

Аудио #4
Идентификатор: 189 (0xBD)-131 (0x83)
Формат: AC-3
Формат/Информация: Audio Coding 3
Расширение режима: CM (complete main)
Режим смешивания: DVD-Video
Продолжительность: 26 м.
Вид битрейта: Постоянный
Битрейт: 384 Кбит/сек
Канал(ы): 6 канала(ов)
Расположение каналов: Front: L C R, Side: L R, LFE
Частота: 48,0 КГц
Битовая глубина: 16 бит
Метод сжатия: С потерями
Размер потока: 73,4 Мбайт (7%)

Текст #1
Идентификатор: 189 (0xBD)-32 (0x20)
Формат: RLE
Формат/Информация: Run-length encoding
Режим смешивания: DVD-Video

Текст #2
Идентификатор: 189 (0xBD)-33 (0x21)
Формат: RLE
Формат/Информация: Run-length encoding
Режим смешивания: DVD-Video

Меню

Поделиться:




реклама партнёра


Вернуться к началу
 Профиль Отправить личное сообщение  
 
   Похожие торренты   Автор   Торрент   Размер 
В этой теме нет новых непрочитанных сообщений. Поменяться местами / Trading Places [Комедия, 1983] BDRip 720p, Mvo

salma3

120 | 7

3.07 ГБ

В этой теме нет новых непрочитанных сообщений. Поездка в Америку / Coming to America (Джон Лэндис) [Комедия, Мелодрама, 1988] BDRip 720p, Mvo+Dvo+Avo+Sub

Dracon

10 | 3

9.05 ГБ

В этой теме нет новых непрочитанных сообщений. Places Burn - Places Burn (EP) [Июль 2011, Metalcore, Groove Metal, MP3]

PriZraK

0 | 1

34 МБ

В этой теме нет новых непрочитанных сообщений. Они поменялись местами / Model Behavior [комедия, 2000] DVBRip, Mvo

salma3

64 | 4

1.46 ГБ

В этой теме нет новых непрочитанных сообщений. Мой наставник / My Tutor [Комедия, мелодрама, 1983] DVD5, Avo+Sub

salma3

0 | 4

4.16 ГБ

В этой теме нет новых непрочитанных сообщений. Люди, места, вещи / People Places Things [Комедия, 2015] WEB-DLRip, Mvo [iTunes]

Dracon

61 | 3

1.37 ГБ

В этой теме нет новых непрочитанных сообщений. Фокус / Focus (Гленн Фикарра, Джон Рекуа) [драма, мелодрама, комедия, криминал, 2015] DVD5, Dub+Sub [Лицензия]

Dracon

169 | 26

4.36 ГБ


Начать новую тему Ответить на тему  [ 1 сообщение ] 




Для Мосгорсуда, Роскомнадзора и рекламодателей:: mosgorsud-torrent[собачка]yandex.ru