Торрент файл
скачать торрент магнет ссылка Добавлен: 08 янв 2012, 22:36
Размер: 4.3 ГБ
Сидеров: 1
Личеров: 5
Автор

СообщениеДобавлено: 08 янв 2012, 22:36 

Не в сети
Супермодератор
Аватара пользователя
Дата регистрации:
11 апр 2010, 18:10
Спасибо: 5960 / 7
Сообщения: 56770
Доказательство жизни / Proof of Life

Перевод: Профессиональный (полное дублирование)
Субтитры: Русские, английские
Формат: DVD5, DVD Video, MPEG2, AC3
Страна: США
Режиссер: Тейлор Хекфорд
Жанр: Боевик, драма, приключения
Продолжительность: 02:09:50
Год выпуска: 2000

В ролях: Мег Райан, Рассел Кроу, Дэвид Морс, Памела Рид, Дэвид Карузо, Энтони Хилд, Стенли Андерсон, Готтфрид Джон, Алан Армстронг, Майкл Кичен ...

Роли дублировали: Алена Ивченко, Олег Куценко, Дмитрий Полонский, Любовь Германова, Андрей Градов ...

Описание: Терри Торн сумел выкупить заложника Пьера Ленуа на территории Чечни, утерев нос федералам,
которые настаивали на том, чтобы самостоятельно осуществить выкуп.
Терри — парень не простой; владеет всеми видами оружия, знает несколько языков, является хорошим переговорщиком и психологом.
Он занимается освобождением заложников, если есть «доказательство жизни».
А застраховать свою жизнь в странах с «горячими точками» стоит дорого.
Еще больше выплачивается страховой компанией лицу, указанному в страховом полисе получателем.
Продемонстрировав, как ловко Терри действовал в Чечне, авторы фильма переносят место действия в Южную Америку.
Там захватом заложников и грабежами занимаются повстанцы. И для очередного освобождения заложников
правительство обращается за помощью к Терри…


Рейтинг на КиноПоиск: 6.806 (1 472)
Рейтинг на IMDb: 6.2/10
Рейтинг MPAA: R

Видео: 720X576 (PAL 16:9), 25.000fps, MPEG-2 Video, ~ 8 164Kbps avg
Аудио#1:Русский 48.0KHz, AC-3, 6 ch, ~ 384Kbps avg[Профессиональный (полное дублирование)]
Аудио#2:Английский 48.0KHz, AC-3, 6 ch, ~ 384Kbps avg[Оригинал]

Трейлер к фильму

Общее
Полное имя: D:\загрузка\proof_of_life_[tfile.ru]\VIDEO_TS\VTS_01_4.VOB
Формат: MPEG-PS
Размер файла: 1024 Мбайт
Продолжительность: 29 м.
Общий поток: 4863 Кбит/сек

Видео
Идентификатор: 224 (0xE0)
Формат: MPEG Video
Версия формата: Version 2
Профиль формата: Main@Main
Параметр BVOP формата: Да
Параметр матрицы формата: По умолчанию
Параметры GOP формата: M=3, N=12
Продолжительность: 29 м.
Вид битрейта: Переменный
Битрейт: 3998 Кбит/сек
Номинальный битрейт: 8164 Кбит/сек
Ширина: 720 пикс.
Высота: 576 пикс.
Соотношение сторон: 16:9
Частота кадров: 25,000 кадр/сек
Стандарт вещания: PAL
Цветовое пространство: YUV
Подвыборка цветности: 4:2:0
Битовая глубина: 8 бит
Тип развёртки: Прогрессивная
Метод сжатия: С потерями
Бит/(Пиксели*Кадры): 0.386
Размер потока: 842 Мбайт (82%)

Аудио #1
Идентификатор: 128 (0x80)
Формат: AC-3
Формат/Информация: Audio Coding 3
Расширение режима: CM (complete main)
Продолжительность: 29 м.
Вид битрейта: Постоянный
Битрейт: 384 Кбит/сек
Канал(ы): 6 канала(ов)
Расположение каналов: Front: L C R, Side: L R, LFE
Частота: 48,0 КГц
Битовая глубина: 16 бит
Метод сжатия: С потерями
Задержка видео: -600 мс.
Размер потока: 80,9 Мбайт (8%)

Аудио #2
Идентификатор: 129 (0x81)
Формат: AC-3
Формат/Информация: Audio Coding 3
Расширение режима: CM (complete main)
Продолжительность: 29 м.
Вид битрейта: Постоянный
Битрейт: 384 Кбит/сек
Канал(ы): 6 канала(ов)
Расположение каналов: Front: L C R, Side: L R, LFE
Частота: 48,0 КГц
Битовая глубина: 16 бит
Метод сжатия: С потерями
Задержка видео: -608 мс.
Размер потока: 80,9 Мбайт (8%)

Текст #1
Идентификатор: 32 (0x20)
Формат: RLE
Формат/Информация: Run-length encoding
Продолжительность: 29 м.
Задержка видео: -600 мс.

Текст #2
Идентификатор: 33 (0x21)
Формат: RLE
Формат/Информация: Run-length encoding
Продолжительность: 29 м.
Задержка видео: -600 мс.

Текст #3
Идентификатор: 34 (0x22)
Формат: RLE
Формат/Информация: Run-length encoding
Продолжительность: 29 м.
Задержка видео: -600 мс.

Текст #4
Идентификатор: 35 (0x23)
Формат: RLE
Формат/Информация: Run-length encoding
Продолжительность: 29 м.
Задержка видео: -600 мс.

Меню

Сценарий: Тони Гилрой, Уильям Прошно, Томас Харгров
Продюсер: Тони Гилрой, Тейлор Хекфорд, Чарльз Малвехилл, ...
Оператор: Славомир Идзяк
Композитор: Дэнни Элфман, Вэн Моррисон
Художник: Бруно Рубео, Стив Картер, Рут Майерс, ...
Монтаж: Шелдон Кан, Джон Смит
Бюджет: $65 000 000
Маркетинг: $29 700 000
Сборы в США: $32 598 931
Сборы в мире: + $30 162 074 = $62 761 005
Зрители: США5.94 млн,Испания628.8 тыс.,Великобритания627.3 тыс., ...
Премьера (мир): 4 декабря 2000
Релиз на DVD: 17 февраля 2011, «ВС трейд», ...





















Поделиться:




реклама партнёра


Вернуться к началу
 Профиль Отправить личное сообщение  
 
   Похожие торренты   Автор   Торрент   Размер 
В этой теме нет новых непрочитанных сообщений. Доказательство жизни / Proof of life [боевик, триллер, драма, 2000] WEB-DL 720p, Dub

salma3

72 | 29

5.8 ГБ

В этой теме нет новых непрочитанных сообщений. Доказательство жизни / Proof of Life [боевик, триллер, драма, 2000] WEB-DL 1080p, Dub [Open Matte]

salma3

10 | 7

11.63 ГБ

В этой теме нет новых непрочитанных сообщений. Доказательство смерти / Death Proof [боевик, триллер, криминал, 2007] HDRip-AVC, Dub

salma3

17 | 0

745.92 МБ

В этой теме нет новых непрочитанных сообщений. Доказательство / Proof [драма, 1991] BDRip 1080p, Dvo

salma3

32 | 6

8.68 ГБ

В этой теме нет новых непрочитанных сообщений. Доказательство / Proof [драма, детектив, 2005] BDRip, Dub

salma3

13 | 3

1.45 ГБ

В этой теме нет новых непрочитанных сообщений. Доказательство / Proof [драма, 1991] BDRip 720p, 2Dvo+Sub

salma3

24 | 2

3.28 ГБ

В этой теме нет новых непрочитанных сообщений. Один раз в жизни / Once in the Life [драма, криминал, 2000] WEB-DLRip, Dvo

salma3

9 | 6

1.45 ГБ


Начать новую тему Ответить на тему  [ 1 сообщение ] 




Для Мосгорсуда, Роскомнадзора и рекламодателей:: mosgorsud-torrent[собачка]yandex.ru