Торрент файл
скачать торрент магнет ссылка Добавлен: 08 янв 2012, 22:36
Размер: 4.31 ГБ
Сидеров: 0
Личеров: 3
Автор

СообщениеДобавлено: 08 янв 2012, 22:36 

Не в сети
Супермодератор
Аватара пользователя
Дата регистрации:
11 апр 2010, 18:10
Спасибо: 5798 / 7
Сообщения: 56779
Идальго: Погоня в пустыне / Hidalgo

Перевод: Профессиональный (полное дублирование)
Субтитры: Английские, польские, иврит, турецкие, русские, румынские
Формат: DVD5, DVD Video, MPEG2, AC3
Страна: США
Режиссер: Джо Джонстон
Жанр: Боевик, драма, приключения
Продолжительность: 02:10:49
Год выпуска: 2004

В ролях: Вигго Мортенсен, Зулейха Робинсон, Омар Шариф, Луиза Ломбард, Адам Алекси-Маль, Саид Тагмауи, Сайлас Карсон, Харш Найяр, Дж.К. Симмонс, Адони Маропис ...

Роли дублировали: Алексей Рязанцев, Вадим Яковлев, Сергей Дьячков, Евгений Иванов, Валерий Соловьев ...

Описание: В 1890 году богатый шейх впервые пригласил участвовать в соревнованиях иностранца.
Им стал американец Фрэнк Хопкинс, лучший ковбой и наездник на всем Диком Западе.
Влиятельный шейх поставил сумасшедшие деньги на победу иноземца.
Теперь его судьба зависит от противостояния американского выскочки на мустанге по кличке
Идальго и лучших арабских жеребцов, управляемых самыми искусными наездниками-бедуинами.
И далеко не всех устраивает победа дерзкого янки в традиционном арабском дерби, ведь
она может принести одним — славу, а другим — смерть. И для Фрэнка победа становится не только делом
чести, но и единственной возможностью выжить в жарких песках бескрайней пустыни…


Рейтинг на КиноПоиск: 7.420 (2 613)
Рейтинг на IMDb: 6.6/10
Рейтинг MPAA: PG-13

Видео: 720X576 (PAL 16:9), 25.000fps, MPEG-2 Video, ~ 8 008Kbps avg
Аудио#1:Английский 48.0KHz, AC-3, 6 ch, ~ 448Kbps avg[Оригинал]
Аудио#2:Польский 48.0KHz, AC-3, 6 ch, ~ 384Kbps avg
Аудио#3:Турецкий 48.0KHz, AC-3, 6 ch, ~ 384Kbps avg
Аудио#4:Русский 48.0KHz, AC-3, 6 ch, ~ 384Kbps avg[Профессиональный (полное дублирование)]

Слоган:«Unbridled. Unbroken. Unbeaten.»

Трейлер к фильму

Общее
Полное имя: D:\загрузка\hidalgo_[tfile.ru]\VIDEO_TS\VTS_01_2.VOB
Формат: MPEG-PS
Размер файла: 1024 Мбайт
Продолжительность: 31 м.
Общий поток: 4578 Кбит/сек

Видео
Идентификатор: 224 (0xE0)
Формат: MPEG Video
Версия формата: Version 2
Профиль формата: Main@Main
Параметр BVOP формата: Да
Параметр матрицы формата: По умолчанию
Продолжительность: 31 м.
Вид битрейта: Переменный
Битрейт: 2887 Кбит/сек
Номинальный битрейт: 8008 Кбит/сек
Ширина: 720 пикс.
Высота: 576 пикс.
Соотношение сторон: 16:9
Частота кадров: 25,000 кадр/сек
Стандарт вещания: PAL
Цветовое пространство: YUV
Подвыборка цветности: 4:2:0
Битовая глубина: 8 бит
Тип развёртки: Чересстрочная
Порядок развёртки: Верхнее поле первое
Метод сжатия: С потерями
Бит/(Пиксели*Кадры): 0.278
Размер потока: 646 Мбайт (63%)

Аудио #1
Идентификатор: 128 (0x80)
Формат: AC-3
Формат/Информация: Audio Coding 3
Расширение режима: CM (complete main)
Продолжительность: 31 м.
Вид битрейта: Постоянный
Битрейт: 448 Кбит/сек
Канал(ы): 6 канала(ов)
Расположение каналов: Front: L C R, Side: L R, LFE
Частота: 48,0 КГц
Битовая глубина: 16 бит
Метод сжатия: С потерями
Задержка видео: -496 мс.
Размер потока: 100 Мбайт (10%)

Аудио #2
Идентификатор: 129 (0x81)
Формат: AC-3
Формат/Информация: Audio Coding 3
Расширение режима: CM (complete main)
Продолжительность: 31 м.
Вид битрейта: Постоянный
Битрейт: 384 Кбит/сек
Канал(ы): 6 канала(ов)
Расположение каналов: Front: L C R, Side: L R, LFE
Частота: 48,0 КГц
Битовая глубина: 16 бит
Метод сжатия: С потерями
Задержка видео: -496 мс.
Размер потока: 85,9 Мбайт (8%)

Аудио #3
Идентификатор: 130 (0x82)
Формат: AC-3
Формат/Информация: Audio Coding 3
Расширение режима: CM (complete main)
Продолжительность: 31 м.
Вид битрейта: Постоянный
Битрейт: 384 Кбит/сек
Канал(ы): 6 канала(ов)
Расположение каналов: Front: L C R, Side: L R, LFE
Частота: 48,0 КГц
Битовая глубина: 16 бит
Метод сжатия: С потерями
Задержка видео: -496 мс.
Размер потока: 85,9 Мбайт (8%)

Аудио #4
Идентификатор: 131 (0x83)
Формат: AC-3
Формат/Информация: Audio Coding 3
Расширение режима: CM (complete main)
Продолжительность: 31 м.
Вид битрейта: Постоянный
Битрейт: 384 Кбит/сек
Канал(ы): 6 канала(ов)
Расположение каналов: Front: L C R, Side: L R, LFE
Частота: 48,0 КГц
Битовая глубина: 16 бит
Метод сжатия: С потерями
Задержка видео: -496 мс.
Размер потока: 85,9 Мбайт (8%)

Текст #1
Идентификатор: 32 (0x20)
Формат: RLE
Формат/Информация: Run-length encoding

Текст #2
Идентификатор: 33 (0x21)
Формат: RLE
Формат/Информация: Run-length encoding

Текст #3
Идентификатор: 34 (0x22)
Формат: RLE
Формат/Информация: Run-length encoding

Текст #4
Идентификатор: 35 (0x23)
Формат: RLE
Формат/Информация: Run-length encoding

Текст #5
Идентификатор: 36 (0x24)
Формат: RLE
Формат/Информация: Run-length encoding

Текст #6
Идентификатор: 37 (0x25)
Формат: RLE
Формат/Информация: Run-length encoding

Текст #7
Идентификатор: 38 (0x26)
Формат: RLE
Формат/Информация: Run-length encoding

Меню

Сценарий: Джон Фуско
Продюсер: Кэйси Сильвер, Патриция Карр, Крис Сальватерра, ...
Оператор: Шелли Джонсон
Композитор: Джеймс Ньютон Ховард
Художник: Бэрри Робисан, Ахмед Абуноум, Кевин Констант, ...
Монтаж: Роберт Далва
Бюджет: $100 000 000
Маркетинг: $25 000 000
Сборы в США: $67 303 450
Сборы в мире: + $40 800 000 = $108 103 450
Сборы в России: $1 255 000
Зрители: США10.8 млн, Испания959.6 тыс., Германия559.1 тыс., ...
Премьера (мир): 17 февраля 2004
Премьера (РФ): 11 марта 2004, «Каскад»
Релиз на DVD: 5 апреля 2011, «Уолт Дисней Компани СНГ», ...

































Поделиться:




реклама партнёра


Вернуться к началу
 Профиль Отправить личное сообщение  
 
   Похожие торренты   Автор   Торрент   Размер 
В этой теме нет новых непрочитанных сообщений. В пустыне смерти / Into the Badlands [S01] (Дэвид Добкин) [2015, боевик, драма, приключения, HDTVRip | SunshineStudio]

Dracon

44 | 26

2.85 ГБ

В этой теме нет новых непрочитанных сообщений. В пустыне смерти / Into the Badlands [S01] (Дэвид Добкин) [2015, боевик, драма, приключения, WEB-DL 1080p | NewStudio

Dracon

168 | 124

10.48 ГБ

В этой теме нет новых непрочитанных сообщений. В пустыне смерти / Into the Badlands [01x01-06 из 06] (Дэвид Добкин) [2015, Боевик, драма, приключения, экранизация, WEB-DLRip | AMC]

Dracon

159 | 103

3.42 ГБ

В этой теме нет новых непрочитанных сообщений. В пустыне смерти / Into the Badlands [S01] (Дэвид Добкин) [2015, боевик, драма, приключения, HDTVRip 720p | SunshineStudio]

Dracon

41 | 18

4.11 ГБ

В этой теме нет новых непрочитанных сообщений. В пустыне смерти / Into the Badlands [01х01-06 из 06] (Дэвид Добкин) [2015, Боевик, драма, приключения, WEB-DLRip | LostFilm]

Dracon

53 | 13

3.47 ГБ

В этой теме нет новых непрочитанных сообщений. В пустыне смерти / Into the Badlands [01x01-06 из 06] (Дэвид Добкин) [2015, Боевик, драма, приключения, экранизация, WEB-DLRip | BaibaKo]

Dracon

87 | 233

3.4 ГБ

В этой теме нет новых непрочитанных сообщений. В пустыне смерти / Into the Badlands [01x01-05 из 06] (Дэвид Добкин) [2015, Боевик, драма, приключения, экранизация, WEBDLRip | NewStudio]

Dracon

2 | 3

2.65 ГБ


Начать новую тему Ответить на тему  [ 1 сообщение ] 




Для Мосгорсуда, Роскомнадзора и рекламодателей:: mosgorsud-torrent[собачка]yandex.ru