Торрент файл
скачать торрент магнет ссылка Добавлен: 08 янв 2012, 22:36
Размер: 4.17 ГБ
Сидеров: 2
Личеров: 5
Автор

СообщениеДобавлено: 08 янв 2012, 22:36 

Не в сети
Супермодератор
Аватара пользователя
Дата регистрации:
11 апр 2010, 18:10
Спасибо: 5801 / 7
Сообщения: 56779
Девять ярдов 2 / Десять ярдов / The Whole Ten Yards

Перевод: Профессиональный (полное дублирование)
Субтитры:Русские
Формат:DVD5, DVD Video, MPEG2, AC3
Страна:США
Режиссер:Ховард Дойч
Жанр:Триллер, комедия, криминал
Продолжительность:01:34:37
Год выпуска:2004

В ролях:Брюс Уиллис, Мэттью Перри, Аманда Пит, Кевин Поллак, Наташа Хенстридж, Фрэнк Коллисон, Джонни Месснер, Сайлас Уэйр Митчелл, Таша Смит, Элиза Галлай

Описание: Множество неприятностей происходит в жизни нашего любимого дантиста из Беверли Хиллз, Николаса Озерански. Хорошая новость — то что его жена Синтия беременна. А плохая новость? Его одолела паранойя…

Известный главарь венгерской мафии Лазло вышел из тюрьмы и хочет вернуть деньги, которые Озз и Джими-Тюльпан увели у него из под носа. Лазло пойдет на всё, чтобы вернуть свои деньги, и для этой цели он похищает беременную Синтию… История закручивается всё сильней и сильней, но это же всего лишь один день из жизни наших героев…


Рейтинг на КиноПоиск.RU: 6.887
Рейтинг на IMDB: 5.1/10
Рейтинг MPAA: PG-13

Видео: 720x576 (PAL 16:9), 25.000 fps, MPEG2 Video, ~8000 kbps avg
Аудио#1:Русский: 48kHz, AC3, 6ch, ~448 Kbps avg [Профессиональный (полное дублирование)]
Аудио#2:Английский: 48kHz, AC3, 6ch, ~384 Kbps avg [Оригинал]


Общее
Полное имя: L:\фильмы в DVD\Deveati_yardov_2\VIDEO_TS\VTS_02_1.VOB
Формат: MPEG-PS
Размер файла: 1024 Мбайт
Продолжительность: 28 м.
Общий поток: 5093 Кбит/сек

Видео
Идентификатор: 224 (0xE0)
Формат: MPEG Video
Версия формата: Version 2
Профиль формата: Main@Main
Параметр BVOP формата: Да
Параметр матрицы формата: По умолчанию
Параметры GOP формата: M=3, N=15
Продолжительность: 28 м.
Вид битрейта: Переменный
Битрейт: 4096 Кбит/сек
Номинальный битрейт: 8000 Кбит/сек
Ширина: 720 пикс.
Высота: 576 пикс.
Соотношение сторон: 16:9
Частота кадров: 25,000 кадр/сек
Стандарт вещания: PAL
Цветовое пространство: YUV
Подвыборка цветности: 4:2:0
Битовая глубина: 8 бит
Тип развёртки: Чересстрочная
Порядок развёртки: Верхнее поле первое
Метод сжатия: С потерями
Бит/(Пиксели*Кадры): 0.395
Размер потока: 823 Мбайт (80%)

Аудио #1
Идентификатор: 189 (0xBD)-128 (0x80)
Формат: AC-3
Формат/Информация: Audio Coding 3
Расширение режима: CM (complete main)
Режим смешивания: DVD-Video
Продолжительность: 28 м.
Вид битрейта: Постоянный
Битрейт: 448 Кбит/сек
Канал(ы): 6 канала(ов)
Расположение каналов: Front: L C R, Side: L R, LFE
Частота: 48,0 КГц
Битовая глубина: 16 бит
Метод сжатия: С потерями
Задержка видео: -80 мс.
Размер потока: 90,1 Мбайт (9%)

Аудио #2
Идентификатор: 189 (0xBD)-129 (0x81)
Формат: AC-3
Формат/Информация: Audio Coding 3
Расширение режима: CM (complete main)
Режим смешивания: DVD-Video
Продолжительность: 28 м.
Вид битрейта: Постоянный
Битрейт: 448 Кбит/сек
Канал(ы): 6 канала(ов)
Расположение каналов: Front: L C R, Side: L R, LFE
Частота: 48,0 КГц
Битовая глубина: 16 бит
Метод сжатия: С потерями
Задержка видео: -80 мс.
Размер потока: 90,1 Мбайт (9%)

Текст
Идентификатор: 189 (0xBD)-32 (0x20)
Формат: RLE
Формат/Информация: Run-length encoding
Режим смешивания: DVD-Video

Меню

[b]









[b]














[b]Поделиться:




реклама партнёра


Вернуться к началу
 Профиль Отправить личное сообщение  
 
   Похожие торренты   Автор   Торрент   Размер 
В этой теме нет новых непрочитанных сообщений. Старость – не радость / Getting On [S01] (Ховард Дойч, Бекки Мартин, Мигель Артета) [2013, комедия, HDTVRip | Amedia]

Dracon

103 | 17

2.29 ГБ

В этой теме нет новых непрочитанных сообщений. Старость – не радость / Getting On [S02] (Ховард Дойч, Бекки Мартин, Мигель Артета) [2014, комедия, HDTVRip | Amedia]

Dracon

76 | 13

2.49 ГБ

В этой теме нет новых непрочитанных сообщений. Девять королев / Nine Queens / Nueve reinas (Фабиан Белински / Fabián Bielinsky) [2000г., Аргентина, триллер, драма, криминал, DVDRip] DVO

Alfredovich

52 | 2

1.45 ГБ

В этой теме нет новых непрочитанных сообщений. Жестокие игры 3 / Cruel Intentions 3 [Драма, триллер, комедия, 2004] DVD5, Mvo+Sub

salma3

12 | 2

3.87 ГБ

В этой теме нет новых непрочитанных сообщений. Зверополис / Zootopia (Байрон Ховард, Рич Мур, Джаред Буш) [2016, мультфильм, боевик, комедия, криминал, приключения, семейный, HDRip | Лицензия] Dub

marya111

2178 | 80

1.45 ГБ

В этой теме нет новых непрочитанных сообщений. Зверополис / Zootopia (Байрон Ховард, Рич Мур, Джаред Буш) [2016, мультфильм, боевик, комедия, криминал, приключения, семейный, BDRip 720p | Лицензия] Dub

marya111

342 | 11

3.32 ГБ

В этой теме нет новых непрочитанных сообщений. Зверополис / Zootopia [2D/3D] [USA Transfer] (Байрон Ховард, Рич Мур, Джаред Буш) [2016, мультфильм, боевик, комедия, криминал, приключения, семейный, BD Remux 2D/3D 1080p] DUB [iTunes]

marya111

17 | 6

32.5 ГБ


Начать новую тему Ответить на тему  [ 1 сообщение ] 




Для Мосгорсуда, Роскомнадзора и рекламодателей:: mosgorsud-torrent[собачка]yandex.ru