Торрент файл
скачать торрент магнет ссылка Добавлен: 08 янв 2012, 22:34
Размер: 4.21 ГБ
Сидеров: 0
Личеров: 9
Автор

СообщениеДобавлено: 08 янв 2012, 22:34 

Не в сети
Супермодератор
Аватара пользователя
Дата регистрации:
11 апр 2010, 18:10
Спасибо: 5799 / 7
Сообщения: 56779
Не пойман, не вор / Ni vu, ni connu

Перевод: Профессиональный (двухголосый)
Субтитры: отсутствуют
Формат: DVD5, DVD Video, MPEG2, AC3
Страна: Франция
Режиссер: Ив Роберт
Жанр: Комедия
Продолжительность: 01:26:48
Год выпуска: 1958
В ролях: Луи Де Фюнес, Клод Риш, Сабина Андре, Марк Бланчард, Ноэль Адам

Описание: Монпаньяр - самый спокойный город Франции. Единственный возмутитель спокойствия - это рыночный торговец Блеро. Он имеет разрешение на продажу грибов на местном рынке, но поскольку спрос на рыбу высок, то Блеро в свободное время нелегально рыбачит и тайком продает рыбу без разрешения. Жандармы пытаются поймать браконьера, но безуспешно. Когда на одного из жандармов совершается нападение, подозрение падает на Блеро, и его сажают в тюрьму на месяц. Внезапно объявляется настоящий преступник, и Блеро надеется выйти на свободу. Но обстоятельства складываются иначе.

Рейтинг IMDB: 7.0/10
Рейтинг Кинопоиск.RU: 8.188

Видео: 720x576 (PAL 4:3), 25,000 fps, MPEG-2 Video, ~ 6400 kbps avg
Аудио: Русский 48.0 KHz, АС3, 2 ch ~ 192 Kbps avg [Профессиональный (двухголосый)]
Аудио: Французский 48.0 KHz, АС3, 1 ch ~ 192 Kbps avg


General
Complete name: E:\NI VU NI CONNU - DVD\VIDEO_TS\VTS_01_1.VOB
Format: MPEG-PS
File size: 1 000 MiB
Duration: 20mn 22s
Overall bit rate: 6 866 Kbps

Video
ID: 224 (0xE0)
Format: MPEG Video
Format version: Version 2
Format profile: Main@Main
Format settings, BVOP: Yes
Format settings, Matrix: Default
Format settings, GOP: M=3, N=12
Duration: 20mn 22s
Bit rate mode: Variable
Bit rate: 6 400 Kbps
Width: 720 pixels
Height: 576 pixels
Display aspect ratio: 4:3
Frame rate: 25.000 fps
Standard: PAL
Color space: YUV
Chroma subsampling: 4:2:0
Bit depth: 8 bits
Scan type: Interlaced
Scan order: Top Field First
Compression mode: Lossy
Bits/(Pixel*Frame): 0.617
Stream size: 924 MiB (92%)

Audio #1
ID: 128 (0x80)
Format: AC-3
Format/Info: Audio Coding 3
Mode extension: CM (complete main)
Duration: 20mn 21s
Bit rate mode: Constant
Bit rate: 192 Kbps
Channel(s): 2 channels
Channel positions: Front: L R
Sampling rate: 48.0 KHz
Bit depth: 16 bits
Compression mode: Lossy
Stream size: 28.0 MiB (3%)

Audio #2
ID: 129 (0x81)
Format: AC-3
Format/Info: Audio Coding 3
Mode extension: CM (complete main)
Duration: 20mn 21s
Bit rate mode: Constant
Bit rate: 192 Kbps
Channel(s): 1 channel
Channel positions: Front: C
Sampling rate: 48.0 KHz
Bit depth: 16 bits
Compression mode: Lossy
Stream size: 28.0 MiB (3%)

Menu









Поделиться:




реклама партнёра


Вернуться к началу
 Профиль Отправить личное сообщение  
 
   Похожие торренты   Автор   Торрент   Размер 
В этой теме нет новых непрочитанных сообщений. Том и Джерри: Большие гонки / Tom and Jerry's Greatest Chases [01 - 70 из 70] [мультфильм, комедия, семейный, 1941-1958] DVDRip, Mvo+Sub [лицензия]

salma3

18 | 12

7.61 ГБ

В этой теме нет новых непрочитанных сообщений. Том и Джерри: Большие гонки / Tom and Jerry's Greatest Chases [01 - 70 из 70] [мультфильм, комедия, семейный, 1941-1958] DVDRip-AVC, Mvo+Sub [лицензия]

salma3

30 | 2

7.7 ГБ

В этой теме нет новых непрочитанных сообщений. Дивергент, глава 2: Инсургент / Insurgent (Роберт Швентке) [фантастика, триллер, приключения, 2015] DVD5, Dub+Sub [Лицензия]

Dracon

545 | 51

4.37 ГБ

В этой теме нет новых непрочитанных сообщений. Дикие лошади / Wild Horses (Роберт Дювалл) [Драма, криминал, 2015] DVD5 [Sunny-Films]

Dracon

26 | 26

4.37 ГБ

В этой теме нет новых непрочитанных сообщений. Викинги / The Vikings [Приключения, история, 1958] BDRip 1080p, Dub+Dvo

salma3

45 | 9

11.27 ГБ

В этой теме нет новых непрочитанных сообщений. Головокружение / Vertigo [триллер, мелодрама, детектив, 1958] Blu-ray 1080p, Dub+Sub

salma3

33 | 47

43.19 ГБ

В этой теме нет новых непрочитанных сообщений. Гордый бунтарь / The Proud Rebel [вестерн, драма, 1958] DVDRip, Avo

salma3

47 | 3

1.42 ГБ


Начать новую тему Ответить на тему  [ 1 сообщение ] 




Для Мосгорсуда, Роскомнадзора и рекламодателей:: mosgorsud-torrent[собачка]yandex.ru