Торрент файл
скачать торрент магнет ссылка Добавлен: 08 янв 2012, 22:33
Размер: 4.35 ГБ
Сидеров: 3
Личеров: 5
Автор

СообщениеДобавлено: 08 янв 2012, 22:33 

Не в сети
Супермодератор
Аватара пользователя
Дата регистрации:
11 апр 2010, 18:10
Спасибо: 5801 / 7
Сообщения: 56779
Дух мщения / The Wraith


Перевод: Профессиональный (многоголосый, закадровый)
Субтитры:отсутствуют
Формат: DVD5, DVD Video, MPEG2, AC3
Страна: США
Режиссер: Майк Марвин
Жанр: Фантастика, боевик, триллер, мелодрама
Продолжительность: 01:28:56
Год выпуска: 1986

В ролях: Чарли Шин, Ник Кассаветис, Шерилин Фенн, Рэнди Куэйд, Мэттью Бэрри, Дэвид Шерилл, Джеми Бозиан, Клинт Ховард, Гриффин О`Нил, Крис Нэш

Описание: Банда подростков останавливают водителей и заставляют их участвовать в гонках, ставка в которых — машина, принадлежащая несчастным, попавшимся им на пути. Молодой парень, погибший от рук этих бандитов, возвращается с того света в виде призрака на черном гоночном автомобиле и начинает мстить за свою смерть, вызывая подонков на дуэль и убивая их одного за одним…

Рейтинг КиноПоиск.RU: 6.868
Рейтинг IMDB: 5.2/10
Рейтинг MPAA: PG-13

Видео: 720x576 (PAL 2.35:1) , MPEG-2 Video, 25 fps, ~7000kbps avg
Аудио#1:Русский: 48.0 kHz, AC3, 6 ch, ~448 kbps avg [Профессиональный (многоголосный закадровый)]
Аудио#2:Английский: 48.0 kHz, AC3, 6 ch, ~448 kbps avg [Оригинал]


Общее
Полное имя: E:\Фильмы\the_wraith_[tfile.ru]\VIDEO_TS\VTS_01_1.VOB
Формат: MPEG-PS
Размер файла: 1024 Мбайт
Продолжительность: 20 м.
Общий поток: 6973 Кбит/сек

Видео
Идентификатор: 224 (0xE0)
Формат: MPEG Video
Версия формата: Version 2
Профиль формата: Main@Main
Параметр BVOP формата: Да
Параметр матрицы формата: По умолчанию
Параметры GOP формата: M=3, N=13
Продолжительность: 20 м.
Вид битрейта: Переменный
Битрейт: 5938 Кбит/сек
Номинальный битрейт: 7000 Кбит/сек
Ширина: 720 пикс.
Высота: 576 пикс.
Соотношение сторон: 2,35:1
Частота кадров: 25,000 кадр/сек
Стандарт вещания: PAL
Цветовое пространство: YUV
Подвыборка цветности: 4:2:0
Битовая глубина: 8 бит
Тип развёртки: Чересстрочная
Порядок развёртки: Верхнее поле первое
Метод сжатия: С потерями
Бит/(Пиксели*Кадры): 0.573
Размер потока: 872 Мбайт (85%)

Аудио #1
Идентификатор: 189 (0xBD)-128 (0x80)
Формат: AC-3
Формат/Информация: Audio Coding 3
Расширение режима: CM (complete main)
Режим смешивания: DVD-Video
Продолжительность: 20 м.
Вид битрейта: Постоянный
Битрейт: 448 Кбит/сек
Каналы: 6 каналов
Расположение каналов: Front: L C R, Side: L R, LFE
Частота: 48,0 КГц
Битовая глубина: 16 бит
Метод сжатия: С потерями
Размер потока: 65,8 Мбайт (6%)

Аудио #2
Идентификатор: 189 (0xBD)-129 (0x81)
Формат: AC-3
Формат/Информация: Audio Coding 3
Расширение режима: CM (complete main)
Режим смешивания: DVD-Video
Продолжительность: 20 м.
Вид битрейта: Постоянный
Битрейт: 448 Кбит/сек
Каналы: 6 каналов
Расположение каналов: Front: L C R, Side: L R, LFE
Частота: 48,0 КГц
Битовая глубина: 16 бит
Метод сжатия: С потерями
Размер потока: 65,8 Мбайт (6%)

Меню







Поделиться:




реклама партнёра


Вернуться к началу
 Профиль Отправить личное сообщение  
 
   Похожие торренты   Автор   Торрент   Размер 
В этой теме нет новых непрочитанных сообщений. Дух мщения / The Wraith [Фантастика, боевик, триллер, мелодрама, 1986] BDRip, 2Mvo+Avo+Dvo+Sub

salma3

17 | 8

2.16 ГБ

В этой теме нет новых непрочитанных сообщений. Гостья / The Host [фантастика, боевик, триллер, мелодрама, приключения, 2013] DVD5, Dub+Sub [Лицензия]

Dracon

28 | 4

4.37 ГБ

В этой теме нет новых непрочитанных сообщений. Жаждущий мщения / Ahankaar [Боевик, 1995] DVDRip, Avo

salma3

6 | 3

1.46 ГБ

В этой теме нет новых непрочитанных сообщений. Максимальное ускорение / Maximum Overdrive [Ужасы, фантастика, боевик, триллер, 1986] BDRip 1080p, Mvo+Avo+Sub

salma3

28 | 5

7.18 ГБ

В этой теме нет новых непрочитанных сообщений. Восход «Черной луны» / Black Moon Rising [Боевик, фантастика, триллер, 1986] BDRip 1080p, Mvo+Dvo+Avo+Sub

salma3

31 | 12

11.94 ГБ

В этой теме нет новых непрочитанных сообщений. Восход «Черной луны» / Black Moon Rising [Фантастика, боевик, триллер, 1986] BDRip 720p, Dvo

salma3

11 | 4

3.44 ГБ

В этой теме нет новых непрочитанных сообщений. Ангел мщения / Ms. 45 (Абель Феррара / Abel Ferrara) [1981г., триллер, драма, криминал, HDRip] MVO + avo

Alfredovich

24 | 3

1.45 ГБ


Начать новую тему Ответить на тему  [ 1 сообщение ] 




Для Мосгорсуда, Роскомнадзора и рекламодателей:: mosgorsud-torrent[собачка]yandex.ru