Торрент файл
скачать торрент магнет ссылка Добавлен: 08 янв 2012, 22:26
Размер: 4.36 ГБ
Сидеров: 16
Личеров: 6
Автор

СообщениеДобавлено: 08 янв 2012, 22:26 

Не в сети
Супермодератор
Аватара пользователя
Дата регистрации:
11 апр 2010, 18:10
Спасибо: 5801 / 7
Сообщения: 56779
Доставить любой ценой (4 из 4 серий)

Перевод: Не требуется
Субтитры: Отсутствуют
Формат: DVD5, DVD Video, MPEG2, AC3
Страна: Россия, Украина
Режиссер: Александр Березань
Жанр: Военный
Продолжительность: 4 x~00:44
Год выпуска: 2011

В ролях: Евгения Хиривская, Дмитрий Орлов, Александр Кобзарь, Виктория Малекторович, Сергей Калантай, Дирк Мартенс, Евгений Ермаков, Юрий Шульган, Михаил Жонин, Владимир Левицкий ...

Описание: В октябре 1941 советские люди еще верили, что война с немцами не продлится
дольше нескольких месяцев. Тем не менее по приказу руководства в тыл перевозят
не только заводы, но и исторические ценности. В небольшом городке эвакуируют музей, уютно
разместившийся в старинном монастыре. Молодая девушка Ася, ее отец-профессор, да его
заместитель Феденька — вот и вся охрана, на которую возложена миссия спасти для народа
культурное достояние. Среди прочих экспонатов есть один особенный — он должен
стать основой для выставки под патронатом самого товарища Сталина, но и у немцев на эту вещицу есть планы.
Путь неблизкий, а дорога полна опасностей. Случается так, что вместо родных людей сопровождать
Асеньку станет совсем чужой человек, судьба которого полна неприятных загадок, а повадки и
привычки заставляют скорее опасаться его, чем доверять… но одной ей не выжить.


Рейтинг на КиноПоиск: 5.950 (71)

Видео:720x576 (PAL 16:9), 25,000fps, MPEG-2 Video, ~ 8393Kbps avg
Аудио#1: Русский 48,0KHz, AC-3, 2 ch, ~ 192Kbps avg[Оригинал]

Cлоган: «Не бывает атеистов в окопах под огнем...»



Общее
Полное имя: D:\загрузка\dostavit_luboy_tsenoy_[tfile.ru]\VIDEO_TS\VTS_02_1.VOB
Формат: MPEG-PS
Размер файла: 1024 Мбайт
Продолжительность: 41 м.
Общий поток: 3421 Кбит/сек

Видео
Идентификатор: 224 (0xE0)
Формат: MPEG Video
Версия формата: Version 2
Профиль формата: Main@Main
Параметр BVOP формата: Да
Параметр матрицы формата: По умолчанию
Продолжительность: 41 м.
Вид битрейта: Переменный
Битрейт: 3161 Кбит/сек
Номинальный битрейт: 8393 Кбит/сек
Ширина: 720 пикс.
Высота: 576 пикс.
Соотношение сторон: 16:9
Частота кадров: 25,000 кадр/сек
Стандарт вещания: PAL
Цветовое пространство: YUV
Подвыборка цветности: 4:2:0
Битовая глубина: 8 бит
Тип развёртки: Чересстрочная
Порядок развёртки: Верхнее поле первое
Метод сжатия: С потерями
Бит/(Пиксели*Кадры): 0.305
Размер потока: 946 Мбайт (92%)

Аудио
Идентификатор: 128 (0x80)
Формат: AC-3
Формат/Информация: Audio Coding 3
Расширение режима: CM (complete main)
Продолжительность: 41 м.
Вид битрейта: Постоянный
Битрейт: 192 Кбит/сек
Канал(ы): 2 канала(ов)
Расположение каналов: Front: L R
Частота: 48,0 КГц
Битовая глубина: 16 бит
Метод сжатия: С потерями
Размер потока: 57,5 Мбайт (6%)

Меню

Сценарий: Марьяна Бек, Елена Бойко
Продюсер: Виктор Мирский, Александр Москаленко
Оператор: Алексей Ламах
Художник: Виталий Ясько
Релиз на DVD: 17 мая 2011, «Lizard Cinema Trade», «New Dream media», ...

















Поделиться:




реклама партнёра


Вернуться к началу
 Профиль Отправить личное сообщение  
 
   Похожие торренты   Автор   Торрент   Размер 
В этой теме нет новых непрочитанных сообщений. Доставить по назначению / The Package [Боевик, триллер, драма, криминал, 1989] BDRip 720p, Dub+Dvo+Mvo+Avo+Sub

salma3

25 | 3

10.42 ГБ

В этой теме нет новых непрочитанных сообщений. Доставить по назначению / The Package [Боевик, триллер, драма, криминал, 1989] BDRip 1080p, Dub+Dvo+Mvo+Avo+Sub

salma3

25 | 5

14.19 ГБ

В этой теме нет новых непрочитанных сообщений. 1911 / Падение последней империи / Xinhai geming [боевик, драма, приключения, военный, история, 2011] DVD5, Mvo+Sub Лицензия

salma3

7 | 2

4.36 ГБ

В этой теме нет новых непрочитанных сообщений. Белая ночь [Серии 1-4 из 4] (Александр Якимчук) [Военный, 2015] HDTVRip

Dracon

31 | 4

2.15 ГБ

В этой теме нет новых непрочитанных сообщений. Снег и пепел [01-04 из 04] (Александр Кириенко) [Детектив, военный, 2015] WEB-DL 1080p

Dracon

351 | 26

5.44 ГБ

В этой теме нет новых непрочитанных сообщений. Белая ночь [01-04 из 04] (Александр Якимчук) [Военный, 2015] HDTVRip 720p

Dracon

982 | 115

4.69 ГБ

В этой теме нет новых непрочитанных сообщений. Белая ночь [01-04 из 04] (Александр Якимчук) [Военный, 2014] HDTV 1080i

Dracon

269 | 27

13.18 ГБ


Начать новую тему Ответить на тему  [ 1 сообщение ] 




Для Мосгорсуда, Роскомнадзора и рекламодателей:: mosgorsud-torrent[собачка]yandex.ru