Торрент файл
скачать торрент магнет ссылка Добавлен: 08 янв 2012, 22:23
Размер: 4.08 ГБ
Сидеров: 0
Личеров: 6
Автор

СообщениеДобавлено: 08 янв 2012, 22:23 

Не в сети
Супермодератор
Аватара пользователя
Дата регистрации:
11 апр 2010, 18:10
Спасибо: 5801 / 7
Сообщения: 56779
Путешествия Гулливера / Gulliver's Travels

Перевод: Профессиональный (полное дублирование) [Лицензия]
Cубтитры: Русские, (форсированные,полные), Английские(полные), Румынские(полные)
Формат: DVD5 (сжатый), DVD Video, MPEG2, AC3, DTS
Страна: США
Режиссер: Роб Леттерман
Жанр: фэнтези, комедия, приключения

Продолжительность: 01:24:39
Год выпуска: 2010

В ролях: Джек Блэк, Джейсон Сигел, Эмили Блант, Аманда Пит, Билли Коннолли, Криc О’Дауд, ТиДжей Миллер, Джеймс Корден, Кэтрин Тейт, Эмманюэль Куатра...

Описание: Неприметный почтовый служащий неожиданно оказывается героем знаменитой сказки о приключениях Гулливера. Кораблекрушение выбрасывает его на остров лилипутов, где он сразу же превращается в гиганта, причем не только по росту, но и по размерам самолюбия! Гулливер во многом помогает лилипутам, но одновременно напропалую хвастается своими несуществующими подвигами и изобретениями, пользуясь безграничным доверием маленького народа. Но однажды Гулливер подвергает опасности всех своих новоприобретенных друзей и ему нужно найти способ исправить ситуацию. Пройдя через все испытания, он должен научиться, что самое главное - насколько ты велик внутри, а не снаружи.

Рейтинг КиноПоиск.RU: 5.467
Рейтинг IMDB: 4.8/10
Рейтинг MPAA: PG

Видео: 720x480 (NTSC 16:9) 25,000 fps, MPEG-2 Video ~ - 6320 Kbps, 0.548 bit/pixel
Аудио: Russian (Dolby AC3, 6 ch) 448 Кбит/сек, 48,0 КГц [Профессиональный полное дублирование]
Аудио 2: Russian (DTS, 6 ch) 768 Кбит/сек, 48,0 КГц [Профессиональный полное дублирование]
Аудио 3: English (Dolby AC3, 6 ch) 448 Кбит/сек, 48,0 КГц [Оригинал]

Источник зарубежный Gullivers.Travels.2010.NTSC.R4-DVD5.RoSubbed-playON удалены дорожки Espanol (Dolby AC3, 6 ch),Portugues (Dolby AC3, 6 ch)
Диск собирался программами
Txt2Sup429
PgcDemux
MuxMan
DVDReMake Pro v.3.3.2-Retail
Фотошоп

Title:
Size: 4.08 Gb ( 4 282 050 KBytes ) - DVD-5
Enabled regions: 1, 2, 3, 4, 5, 6, 7, 8

VTS_01 :
Play Length: 01:24:39
Video: NTSC 16:9 (720x480) VBR, Auto Letterboxed
Audio:
Russian (Dolby AC3, 6 ch)
Russian (DTS, 6 ch)
English (Dolby AC3, 6 ch)
Subtitles:
Russian
Russian
English
Romanian

VTS_02 :
Play Length:
Video: NTSC 4:3 (720x480) VBR

VTS_03 :
Play Length: 00:00:40+00:01:03
Video: NTSC 16:9 (720x480) VBR, Auto Letterboxed
Audio:
Not specified (Dolby AC3, 2 ch)
Subtitles:
Not specified

VTS_04 :
Play Length: 00:00:24
Video: NTSC 16:9 (720x480) VBR, Auto Letterboxed
Audio:
English (Dolby AC3, 6 ch)

VTS_05 :
Play Length:
Video: NTSC 4:3 (720x480) VBR

VTS_06 :
Play Length:
Video: NTSC 16:9 (720x480) VBR, Auto Pan&Scan

VTS_07 :
Play Length:
Video: NTSC 16:9 (720x480) VBR, Auto Letterboxed

VTS_08 :
Play Length:
Video: NTSC 4:3 (720x480) VBR

VTS_09 :
Play Length: 00:00:01
Video: NTSC 16:9 (720x480) VBR, Auto Pan&Scan

VTS_10 :
Play Length: 00:00:06+00:00:08
Video: NTSC 16:9 (720x480) VBR, Auto Letterboxed

VTS_11 :
Play Length:
Video: NTSC 4:3 (720x480) VBR

VTS_12 :
Play Length:
Video: NTSC 16:9 (720x480) VBR, Auto Pan&Scan

VTS_13 :
Play Length: 00:01:36
Video: NTSC 16:9 (720x480) VBR, Auto Letterboxed
Audio:
English (Dolby AC3, 2 ch)

VTS_14 :
Play Length:
Video: NTSC 4:3 (720x480) VBR

VTS_15 :
Play Length:
Video: NTSC 16:9 (720x480) VBR, Auto Pan&Scan

VTS_16 :
Play Length:
Video: NTSC 16:9 (720x480) VBR, Auto Letterboxed

VTS_17 :
Play Length:
Video: NTSC 4:3 (720x480) VBR

VTS_18 :
Play Length:
Video: NTSC 16:9 (720x480) VBR, Auto Pan&Scan

VTS_19 :
Play Length:
Video: NTSC 16:9 (720x480) VBR, Auto Letterboxed


eneral
Complete name : E:\DVD5\Путешествия Гулливера R1-DVD-5 ( DRG by delik1 )\VIDEO_TS\VTS_01_1.VOB
Format : MPEG-PS
File size : 1 024 MiB
Duration : 22mn 39s
Overall bit rate : 6 320 Kbps

Video
ID : 224 (0xE0)
Format : MPEG Video
Format version : Version 2
Format profile : Main@Main
Format settings, BVOP : Yes
Format settings, Matrix : Default
Duration : 22mn 37s
Bit rate mode : Variable
Bit rate : 4 543 Kbps
Width : 720 pixels
Height : 480 pixels
Display aspect ratio : 16:9
Frame rate : 23.976 fps
Standard : NTSC
Color space : YUV
Chroma subsampling : 4:2:0
Bit depth : 8 bits
Scan type : Progressive
Scan order : 2:3 Pulldown
Compression mode : Lossy
Bits/(Pixel*Frame) : 0.548
Stream size : 735 MiB (72%)

Audio #1
ID : 128 (0x80)
Format : AC-3
Format/Info : Audio Coding 3
Mode extension : CM (complete main)
Duration : 22mn 39s
Bit rate mode : Constant
Bit rate : 448 Kbps
Channel(s) : 6 channels
Channel positions : Front: L C R, Side: L R, LFE
Sampling rate : 48.0 KHz
Bit depth : 16 bits
Compression mode : Lossy
Delay relative to video : -196ms
Stream size : 72.6 MiB (7%)

Audio #2
ID : 130 (0x82)
Format : AC-3
Format/Info : Audio Coding 3
Mode extension : CM (complete main)
Duration : 22mn 39s
Bit rate mode : Constant
Bit rate : 448 Kbps
Channel(s) : 6 channels
Channel positions : Front: L C R, Side: L R, LFE
Sampling rate : 48.0 KHz
Bit depth : 16 bits
Compression mode : Lossy
Delay relative to video : -1h 24mn
Stream size : 72.6 MiB (7%)

Audio #3
ID : 137 (0x89)
Format : DTS
Format/Info : Digital Theater Systems
Duration : 22mn 39s
Bit rate mode : Constant
Bit rate : 755 Kbps
Channel(s) : 6 channels
Channel positions : Front: L C R, Side: L R, LFE
Sampling rate : 48.0 KHz
Bit depth : 24 bits
Compression mode : Lossy
Delay relative to video : -1h 24mn
Stream size : 122 MiB (12%)

Text #1
ID : 33 (0x21)
Format : RLE
Format/Info : Run-length encoding

Text #2
ID : 34 (0x22)
Format : RLE
Format/Info : Run-length encoding

Text #3
ID : 35 (0x23)
Format : RLE
Format/Info : Run-length encoding

Menu












Поделиться:




реклама партнёра


Вернуться к началу
 Профиль Отправить личное сообщение  
 
   Похожие торренты   Автор   Торрент   Размер 
В этой теме нет новых непрочитанных сообщений. Невероятная жизнь Уолтера Митти / The Secret Life of Walter Mitty [фэнтези, драма, комедия, приключения, 2013] DVD5, Dub+Sub [Сжатый]

Dracon

55 | 12

4.37 ГБ

В этой теме нет новых непрочитанных сообщений. Ужастики / Goosebumps (Роб Леттерман) [2015, фэнтези, комедия, приключения, HDRip] Dub

Nickolas3435

1355 | 30

2.05 ГБ

В этой теме нет новых непрочитанных сообщений. Ужастики / Goosebumps (Роб Леттерман) [2015, фэнтези, комедия, приключения, WEB-DLRip-AVC | iTunes] Dub

Nickolas3435

406 | 3

1.46 ГБ

В этой теме нет новых непрочитанных сообщений. Ужастики / Goosebumps (Роб Леттерман) [фэнтези, комедия, приключения, 2015] WEBRip, dub [Чистый звук]

Dracon

1787 | 17

1.37 ГБ

В этой теме нет новых непрочитанных сообщений. Ужастики / Goosebumps (Роб Леттерман) [фэнтези, комедия, приключения, 2015] WEBRip 720p, dub [Чистый звук]

Dracon

696 | 11

3.38 ГБ

В этой теме нет новых непрочитанных сообщений. Люди Икс: Дни минувшего будущего / X-Men: Days of Future Past (Брайан Сингер) [фантастика, фэнтези, боевик, приключения, 2014] DVD5, Dub+Sub [сжатый]

Dracon

114 | 10

4.34 ГБ

В этой теме нет новых непрочитанных сообщений. Подарок с характером [семейный, приключения, комедия, 2014] DVD5 [Сжатый]

Dracon

73 | 8

4.11 ГБ


Начать новую тему Ответить на тему  [ 1 сообщение ] 




Для Мосгорсуда, Роскомнадзора и рекламодателей:: mosgorsud-torrent[собачка]yandex.ru