Торрент файл
скачать торрент магнет ссылка Добавлен: 08 янв 2012, 22:19
Размер: 4.36 ГБ
Сидеров: 2
Личеров: 5
Автор

СообщениеДобавлено: 08 янв 2012, 22:19 

Не в сети
Супермодератор
Аватара пользователя
Дата регистрации:
11 апр 2010, 18:10
Спасибо: 5799 / 7
Сообщения: 56779
Джиперс Криперс 2 / Jeepers Creepers 2

Перевод: Профессиональный (полное дублирование)
Cубтитры: Отсутствуют
Формат: DVD5,DVD video, MPEG2, AC3
Страна: США
Режиссер: Виктор Сальва
Жанр: ужасы, триллер, драма, приключения
Продолжительность: 01:40:00
Год выпуска: 2003

В ролях: Рэй Уайз, Джонатан Брек, Гарикайи Мутамбирва, Эрик Неннингер, Ники Линн Ококс, Марайа Делфино, Дайан Делано, Том Госсом мл., Билли Аарон Браун, Лена Кардвэлл

Описание: Раз в 23 года зловещий крылатый и когтистый монстр пробуждается от долгого сна, чтобы 23 дня насыщаться человеческой плотью и страхом своих жертв. На исходе последний день его кошмарного пира, и сегодня древнее неведомое зло ждет богатый улов — спортивная команда и очаровательные болельщицы, возвращающиеся с триумфальной игры. Они одни в сломанном автобусе на пустынном шоссе, где не работают мобильные телефоны и неоткуда ждать помощи. На закате прожорливое исчадие ада начнет свою кровавую вакханалию. Сможет ли его добыча дожить до утра, или эта неуязвимая тварь убьет объятых ужасом тинейджеров одного за другим?

Рейтинг КиноПоиск.RU: 5.918
Рейтинг IMDB: 5.3/10
Рейтинг MPAA: R

Видео: 720х576 (PAL 4:3), 25 fps, MPEG 2 Video, ~ 6 312 Kbps avg
Аудио#1: Русcкий 48.0 kHz, AC3, 2 ch, ~192 kbps avg [Профессиональный (полное дублирование)]
Аудио#2: Английский 48.0 kHz, AC3, 2 ch, ~192 kbps avg


Общее
Полное имя: D:\jeepers_creepers2_[tfile.ru]\VIDEO_TS\VTS_01_1.VOB
Формат: MPEG-PS
Размер файла: 1024 Мбайт
Продолжительность: 22 м.
Общий поток: 6312 Кбит/сек

Видео
Идентификатор: 224 (0xE0)
Формат: MPEG Video
Версия формата: Version 2
Профиль формата: Main@Main
Параметр BVOP формата: Да
Параметр матрицы формата: По умолчанию
Продолжительность: 22 м.
Вид битрейта: Переменный
Битрейт: 5803 Кбит/сек
Максимальный битрейт: 8500 Кбит/сек
Ширина: 720 пикс.
Высота: 576 пикс.
Соотношение сторон: 4:3
Частота кадров: 25,000 кадр/сек
Стандарт вещания: PAL
Цветовое пространство: YUV
Подвыборка цветности: 4:2:0
Битовая глубина: 8 бит
Тип развёртки: Чересстрочная
Порядок развёртки: Верхнее поле первое
Метод сжатия: С потерями
Бит/(Пиксели*Кадры): 0.560
Размер потока: 941 Мбайт (92%)

Аудио #1
Идентификатор: 189 (0xBD)-128 (0x80)
Формат: AC-3
Формат/Информация: Audio Coding 3
Расширение режима: CM (complete main)
Режим смешивания: DVD-Video
Продолжительность: 22 м.
Вид битрейта: Постоянный
Битрейт: 192 Кбит/сек
Каналы: 2 канала
Расположение каналов: Front: L R
Частота: 48,0 КГц
Битовая глубина: 16 бит
Метод сжатия: С потерями
Размер потока: 31,1 Мбайт (3%)

Аудио #2
Идентификатор: 189 (0xBD)-129 (0x81)
Формат: AC-3
Формат/Информация: Audio Coding 3
Расширение режима: CM (complete main)
Режим смешивания: DVD-Video
Продолжительность: 22 м.
Вид битрейта: Постоянный
Битрейт: 192 Кбит/сек
Каналы: 2 канала
Расположение каналов: Front: L R
Частота: 48,0 КГц
Битовая глубина: 16 бит
Метод сжатия: С потерями
Размер потока: 31,1 Мбайт (3%)

Меню














Превью: увеличение по клику



Поделиться:




реклама партнёра


Вернуться к началу
 Профиль Отправить личное сообщение  
 
   Похожие торренты   Автор   Торрент   Размер 
В этой теме нет новых непрочитанных сообщений. Джиперс Криперс 2 / Jeepers Creepers II [ужасы, триллер, 2002] BDRemux 1080p, Dub+Dvo+2Mvo

salma3

17 | 8

21.02 ГБ

В этой теме нет новых непрочитанных сообщений. Тупик / Dead End [ужасы, триллер, 2003] DVD5, Mvo+Sub

salma3

26 | 2

4.21 ГБ

В этой теме нет новых непрочитанных сообщений. За гранью времен / Beyond the Limits [ужасы, триллер, 2003] DVD5, Mvo

salma3

21 | 6

3.73 ГБ

В этой теме нет новых непрочитанных сообщений. Виктор / Viktor [Боевик, триллер, 2014] DVD5, Dub [лицензия]

Dracon

117 | 5

4.19 ГБ

В этой теме нет новых непрочитанных сообщений. Ловец снов / Dreamcatcher [ужасы, фантастика, триллер, драма, 2003] BDRip, Dub

salma3

85 | 10

1.46 ГБ

В этой теме нет новых непрочитанных сообщений. Скажи что-нибудь / Kucch To Hai [ужасы, триллер, драма, мелодрама, детектив, 2003] DVDRip, Dvo

salma3

6 | 8

1.47 ГБ

В этой теме нет новых непрочитанных сообщений. Кровавая жатва / Haute tension [ужасы, триллер, драма, 2003] HDRip-AVC, Mvo [Лицензия]

salma3

105 | 10

1.42 ГБ


Начать новую тему Ответить на тему  [ 1 сообщение ] 




Для Мосгорсуда, Роскомнадзора и рекламодателей:: mosgorsud-torrent[собачка]yandex.ru