Торрент файл
скачать торрент магнет ссылка Добавлен: 08 янв 2012, 22:18
Размер: 2.64 ГБ
Сидеров: 11
Личеров: 8
Автор

СообщениеДобавлено: 08 янв 2012, 22:18 

Не в сети
Супермодератор
Аватара пользователя
Дата регистрации:
11 апр 2010, 18:10
Спасибо: 5801 / 7
Сообщения: 56779
Любовные письма португальской монахини / Die Liebesbriefe einer portugiesischen Nonne


Перевод: Любительский (одноголосый)
Субтитры:отсутствуют
Формат: DVD5, DVD Video, MPEG2, MPEG Video
Страна: Германия (ФРГ), Швейцария
Режиссер: Иисус Франко
Жанр: ужасы, драма, приключения
Продолжительность: 01:20:00
Год выпуска: 1977

В ролях: Сьюзэн Хемингуэй, Вильям Бергер, Херберт Фукс, Патриция Да Силва, Айда Варгас, Витор Мендез, Иза Шнайдер, Херман Хосе, Хосе Виана

Описание: Юная Мария попадает в монастырь, где священнослужители поклоняются Сатане. Девушка решается «стукнуть» великой инквизиции, но сама попадает под обвинение в сатанизме.

Рейтинг на IMDB: 6.0/10
Рейтинг КиноПоиск.RU: 5.348

Видео: 720х576 ( PAL 4:3) MPEG Video, 25,000 fps, ~ 4240 kbps avg
Аудио: Русский 48 kHz, MPEG Audio , 2 ch, ~ 256 Kbps avg[Любительский (одноголосый)]

Доп. информация: В фильме присутствуют откровенные сцены обнажённой натуры.


Общее
Полное имя: E:\Die Liebesbriefe einer portugiesischen Nonne\VIDEO_TS\VTS_01_1.VOB
Формат: MPEG-PS
Размер файла: 1024 Мбайт
Продолжительность: 31 м.
Общий поток: 4588 Кбит/сек

Видео
Идентификатор: 224 (0xE0)
Формат: MPEG Video
Версия формата: Version 2
Профиль формата: Main@Main
Параметр BVOP формата: Да
Параметр матрицы формата: По умолчанию
Параметры GOP формата: M=3, N=12
Продолжительность: 31 м.
Вид битрейта: Переменный
Битрейт: 4240 Кбит/сек
Номинальный битрейт: 8000 Кбит/сек
Ширина: 720 пикс.
Высота: 576 пикс.
Соотношение сторон: 4:3
Частота кадров: 25,000 кадр/сек
Стандарт вещания: PAL
Цветовое пространство: YUV
Подвыборка цветности: 4:2:0
Битовая глубина: 8 бит
Тип развёртки: Чересстрочная
Порядок развёртки: Нижнее поле первое
Метод сжатия: С потерями
Бит/(Пиксели*Кадры): 0.409
Размер потока: 946 Мбайт (92%)

Аудио
Идентификатор: 192 (0xC0)
Формат: MPEG Audio
Версия формата: Version 1
Профиль формата: Layer 2
Продолжительность: 31 м.
Вид битрейта: Постоянный
Битрейт: 256 Кбит/сек
Канал(ы): 2 канала(ов)
Частота: 48,0 КГц
Метод сжатия: С потерями
Размер потока: 57,1 Мбайт (6%)

Меню










Поделиться:




реклама партнёра


Вернуться к началу
 Профиль Отправить личное сообщение  
 
   Похожие торренты   Автор   Торрент   Размер 
В этой теме нет новых непрочитанных сообщений. Иисус из Назарета / Jesus of Nazareth [драма, биография, история, 1977] BDRip 1080p, Mvo+Sub

salma3

48 | 4

7.81 ГБ

В этой теме нет новых непрочитанных сообщений. История уединенной монахини / Storia di una monaca di clausura [драма, 1973] DVDRip. Avo

salma3

5 | 2

1.23 ГБ

В этой теме нет новых непрочитанных сообщений. Монахини из Сант-Арканджело / Le monache di Sant'Arcangelo [драма, 1973] DVDRip. Mvo

salma3

8 | 3

1.46 ГБ

В этой теме нет новых непрочитанных сообщений. Колдун / Sorcerer [боевик, драма, приключения, 1977] HDRip, Avo

salma3

42 | 4

1.37 ГБ

В этой теме нет новых непрочитанных сообщений. Чужая дочь / Audrey Rose [ужасы, фэнтези, триллер, драма, 1977] BDRip 720p, Mvo+Sub

salma3

13 | 4

6.77 ГБ

В этой теме нет новых непрочитанных сообщений. Чужая дочь / Audrey Rose [ужасы, фэнтези, триллер, драма, 1977] BDRip 1080p, Mvo+Sub

salma3

7 | 5

15.73 ГБ

В этой теме нет новых непрочитанных сообщений. Колдун / Sorcerer [Боевик, драма, приключения, 1977] BDRip 720p, Avo+Sub

salma3

21 | 5

6.79 ГБ


Начать новую тему Ответить на тему  [ 1 сообщение ] 




Для Мосгорсуда, Роскомнадзора и рекламодателей:: mosgorsud-torrent[собачка]yandex.ru