Торрент файл
скачать торрент магнет ссылка Добавлен: 08 янв 2012, 22:11
Размер: 3.64 ГБ
Сидеров: 0
Личеров: 8
Автор

СообщениеДобавлено: 08 янв 2012, 22:11 

Не в сети
Супермодератор
Аватара пользователя
Дата регистрации:
11 апр 2010, 18:10
Спасибо: 5801 / 7
Сообщения: 56779
Взрывная бригада / Brigada explosiva

Перевод: Профессиональный (одноголосый)
Cубтитры: отсутствуют
Формат: DVD5, DVD Video, MPEG2, AC3
Страна: Аргентина
Режиссер: Энрике Дави
Жанр: Боевик, комедия, приключения, семейный
Продолжительность: 01:22:28
Год выпуска: 1986

В ролях: Мория Касан, Эмилио Диси, Джино Рени, Альберто Фернандез, Де Роза Беруго, Карамбула Норман, Эрлич Гильермо, Франселла Марио, Кастильоне Луис, Педро Тони, Ромуалдо Яуирога

Описание: Банда Кривого грабит банк, переодевшись во врачей скорой помощи. Но на их беду, в этом секторе дежурит бригада «Z» — самая легендарная полицейская команда. Почему «Z»? Да потому, что хуже них никого нет…

Рейтинг на КиноПоиск:5.071[/field]
Рейтинг на IMDB:4.9/10[/field][/field]

Видео: 720х480,NTSC (4:3), 29,970 кадр/сек,MPEG2 Video, ~7500 Кбит/сек, 0.516 Бит/(Пиксели*Кадры)
Аудио #1:Русский, 48,0 КГц, AC3, 2 канала(ов), ~192 Кбит/сек [Профессиональный (одноголосый закадровый)]
Аудио #2:Русский, 48,0 КГц, AC3, 2 канала(ов), ~192 Кбит/сек [Профессиональный (одноголосый закадровый)]
Аудио #3:Испанский, 48,0 КГц, AC3, 2 канала(ов), ~192 Кбит/сек [Оригинал][/field]

Сборка shocker80.
Диск был скачан с зарубежного трекера. В фильме присутствуют две русские дорожки, перевод на них одинаковый, различия в том, что первая дорожка это звук оцифрованный с кассеты и подчищенный, а вторая это микс этой дорожки с оригинальной.
Перечень ПО: PGCDemux; BeSweet + BeLight; Sound Forge; Adobe Audition; Sony Vegas; MuxMan; DVDRemake Pro

Полное имя: I:\Фильмы DVD\Ихние\Взрывная бригада DVD-5\VIDEO_TS\VTS_01_1.VOB
Формат: MPEG-PS
Размер файла: 1024 Мбайт
Продолжительность: 23 м.
Общий поток: 6036 Кбит/сек
Видео
Идентификатор: 224 (0xE0)
Формат: MPEG Video
Версия формата: Version 2
Профиль формата: Main@Main
Параметр BVOP формата: Да
Параметр матрицы формата: По умолчанию
Продолжительность: 23 м.
Вид битрейта: Переменный
Битрейт: 5340 Кбит/сек
Номинальный битрейт: 7500 Кбит/сек
Ширина: 720 пикс.
Высота: 480 пикс.
Соотношение сторон: 4:3
Частота кадров: 29,970 кадр/сек
Стандарт вещания: NTSC
Цветовое пространство: YUV
Подвыборка цветности: 4:2:0
Битовая глубина: 8 бит
Тип развёртки: Чересстрочная
Порядок развёртки: Верхнее поле первое
Метод сжатия: С потерями
Бит/(Пиксели*Кадры): 0.516
Размер потока: 906 Мбайт (88%)
Аудио #1
Идентификатор: 128 (0x80)
Формат: AC-3
Формат/Информация: Audio Coding 3
Расширение режима: CM (complete main)
Продолжительность: 23 м.
Вид битрейта: Постоянный
Битрейт: 192 Кбит/сек
Канал(ы): 2 канала(ов)
Расположение каналов: Front: L R
Частота: 48,0 КГц
Битовая глубина: 16 бит
Метод сжатия: С потерями
Размер потока: 32,6 Мбайт (3%)
Аудио #2
Идентификатор: 129 (0x81)
Формат: AC-3
Формат/Информация: Audio Coding 3
Расширение режима: CM (complete main)
Продолжительность: 23 м.
Вид битрейта: Постоянный
Битрейт: 192 Кбит/сек
Канал(ы): 2 канала(ов)
Расположение каналов: Front: L R
Частота: 48,0 КГц
Битовая глубина: 16 бит
Метод сжатия: С потерями
Размер потока: 32,6 Мбайт (3%)
Аудио #3
Идентификатор: 130 (0x82)
Формат: AC-3
Формат/Информация: Audio Coding 3
Расширение режима: CM (complete main)
Продолжительность: 23 м.
Вид битрейта: Постоянный
Битрейт: 192 Кбит/сек
Канал(ы): 2 канала(ов)
Расположение каналов: Front: L R
Частота: 48,0 КГц
Битовая глубина: 16 бит
Метод сжатия: С потерями
Размер потока: 32,6 Мбайт (3%)
Меню


























Поделиться:




реклама партнёра


Вернуться к началу
 Профиль Отправить личное сообщение  
 
   Похожие торренты   Автор   Торрент   Размер 
В этой теме нет новых непрочитанных сообщений. В поисках Дори / Finding Dory (Мультфильм, комедия, приключения, семейный, 2016) DVD9 | Custom

marya111

29 | 18

6.39 ГБ

В этой теме нет новых непрочитанных сообщений. Дави на газ! / Gamle mænd i nye biler [боевик, комедия, криминал, 2002] HDRip, Dvo

salma3

36 | 4

1.36 ГБ

В этой теме нет новых непрочитанных сообщений. Дави на газ! / Gamle mænd i nye biler [Боевик, комедия, криминал, 2002] ВDRemux 1080p, Dvo

salma3

33 | 11

17.87 ГБ

В этой теме нет новых непрочитанных сообщений. Белка и Стрелка: Лунные приключения [мультфильм, комедия, приключения, семейный, 2013] DVD5 [Лицензия]

Dracon

31 | 7

4.34 ГБ

В этой теме нет новых непрочитанных сообщений. Бигглз: Приключения во времени / Biggles [фантастика, приключения, семейный, военный, 1986] BDRip 720р, Mvo+Avo

salma3

13 | 4

6.79 ГБ

В этой теме нет новых непрочитанных сообщений. Доспехи Бога / Armour Of God [Боевик, комедия, приключения, 1986] BDRip 1080p, Mvo+Dvo+Avo

salma3

41 | 4

9.08 ГБ

В этой теме нет новых непрочитанных сообщений. Идущий в огне / Firewalker [Боевик, комедия, приключения, 1986] BDRip 1080p, Dvo+2Avo+Mvo+Sub

salma3

17 | 2

8.97 ГБ


Начать новую тему Ответить на тему  [ 1 сообщение ] 




Для Мосгорсуда, Роскомнадзора и рекламодателей:: mosgorsud-torrent[собачка]yandex.ru