Торрент файл
скачать торрент магнет ссылка Добавлен: 08 янв 2012, 22:10
Размер: 4.37 ГБ
Сидеров: 0
Личеров: 5
Автор

СообщениеДобавлено: 08 янв 2012, 22:10 

Не в сети
Супермодератор
Аватара пользователя
Дата регистрации:
11 апр 2010, 18:10
Спасибо: 5802 / 7
Сообщения: 56779
Обвиняется свадьба


Перевод: Не требуется
Субтитры: Отсутствуют
Формат: DVD5, DVD Video, MPEG2, AC3
Страна: СССР
Режиссер: Александр Итыгилов
Жанр: драма
Продолжительность: 01:14:28
Год выпуска: 1986

В ролях: Таурас Чижас, Елена Шилкина, Алексей Серебряков, Борис Галкин, Александр Адабашьян, Ольга Матешко, Лев Борисов, Тарас Денисенко, Надежда Смирнова, Сергей Никоненко

Описание: В уютном городском кафе намечается пышный праздник — свадьба. Все должно пройти идеально, ведь счастливых виновников торжества, их радушных родственников и самых близких друзей будет развлекать опытный тамада, а стол ломится от выпивки и угощений.

Здесь не ждут случайных гостей, но когда вечер внезапно прерывается появлением бесцеремонных «приятелей» жениха, в зале возникает гнетущее предчувствие беды. Есть ли у свидетелей будущего преступления шанс предотвратить ужасную трагедию на лихой хмельной свадьбе?


Рейтинг на КиноПоиске: 6.097/10

Видео: 720x576 (PAL 4/3), MPEG-2 Video, 25.000 fps, ~7673 kbps avg
Аудио: 48 kHz, AC3, 2/0 (L,R) ch, ~224.00 kbps avg


Формат: MPEG-PS
Размер файла: 1024 Мбайт
Продолжительность: 17 м.
Общий поток: 8057 Кбит/сек

Видео
Идентификатор: 224 (0xE0)
Формат: MPEG Video
Версия формата: Version 2
Профиль формата: Main@Main
Параметр BVOP формата: Да
Параметр матрицы формата: Выборочная
Продолжительность: 17 м.
Вид битрейта: Переменный
Битрейт: 7673 Кбит/сек
Максимальный битрейт: 9000 Кбит/сек
Ширина: 720 пикс.
Высота: 576 пикс.
Соотношение сторон: 4:3
Частота кадров: 25,000 кадр/сек
Стандарт вещания: PAL
Цветовое пространство: YUV
Подвыборка цветности: 4:2:0
Битовая глубина: 8 бит
Тип развёртки: Чересстрочная
Порядок развёртки: Верхнее поле первое
Метод сжатия: С потерями
Бит/(Пиксели*Кадры): 0.740
Размер потока: 975 Мбайт (95%)

Аудио
Идентификатор: 189 (0xBD)-128 (0x80)
Формат: AC-3
Формат/Информация: Audio Coding 3
Расширение режима: CM (complete main)
Режим смешивания: DVD-Video
Продолжительность: 17 м.
Вид битрейта: Постоянный
Битрейт: 224 Кбит/сек
Каналы: 2 канала
Расположение каналов: Front: L R
Частота: 48,0 КГц
Битовая глубина: 16 бит
Метод сжатия: С потерями
Размер потока: 28,5 Мбайт (3%)

Меню



























Поделиться:




реклама партнёра


Вернуться к началу
 Профиль Отправить личное сообщение  
 
   Похожие торренты   Автор   Торрент   Размер 
В этой теме нет новых непрочитанных сообщений. Два плюс два [01-04 из 04] (Александр Итыгилов мл.) [Мелодрама, 2015] WEBRip 1080p

Dracon

364 | 31

4.18 ГБ

В этой теме нет новых непрочитанных сообщений. Два плюс два [01-04 из 04] (Александр Итыгилов (младший)) [Мелодрама, 2015] WEB-DL 720p

Dracon

321 | 26

2.29 ГБ

В этой теме нет новых непрочитанных сообщений. Два плюс два [Серии 1-4 из 4] (Александр Итыгилов (младший)) [Мелодрама, 2015] SATRip

Dracon

19 | 0

2.42 ГБ

В этой теме нет новых непрочитанных сообщений. Александр Башлачев - На жизнь поэтов (запись в Пущино) [1986, Bard-Rock, MP3]

PriZraK

2 | 2

342.59 МБ

В этой теме нет новых непрочитанных сообщений. Украденная свадьба [01-04 из 04] (Игорь Штернберг) [Детектив, драма, 2015] DVB

Dracon

297 | 20

3.42 ГБ

В этой теме нет новых непрочитанных сообщений. Свадьба / A Wedding [Комедия, драма, мелодрама, 1978] HDTV 1080i, Mvo

salma3

21 | 17

8.86 ГБ

В этой теме нет новых непрочитанных сообщений. Украденная свадьба [Серии 1-4 из 4] (Игорь Штернберг) [Детектив, драма, 2015] SATRip

Dracon

12 | 3

2.3 ГБ


Начать новую тему Ответить на тему  [ 1 сообщение ] 




Для Мосгорсуда, Роскомнадзора и рекламодателей:: mosgorsud-torrent[собачка]yandex.ru