Торрент файл
скачать торрент магнет ссылка Добавлен: 08 янв 2012, 22:09
Размер: 3.25 ГБ
Сидеров: 0
Личеров: 5
Автор

СообщениеДобавлено: 08 янв 2012, 22:09 

Не в сети
Супермодератор
Аватара пользователя
Дата регистрации:
11 апр 2010, 18:10
Спасибо: 5799 / 7
Сообщения: 56779
Взрывная бригада против ниндзя / Brigada explosiva contra los ninjas

Перевод: Профессиональный (одноголосый)
Cубтитры: отсутствуют
Формат: DVD5, DVD Video, MPEG2, AC3
Страна: Аргентина
Режиссер: Мигель Фернандез Алонсо
Жанр: Боевик, комедия, приключения, семейный
Продолжительность: 01:13:26
Год выпуска: 1986
В ролях: Мория Касан, Эмилио Диси, Джино Рени, Беруго Карамбула, Дэниэл Герерро, Марио Кастильоне, Tincho Zabala, Альберто Фернандез Де Роза, Эдгардо Меса, Anamá Ferreyra
Описание: Продолжение приключений Бригады «Z» — команды самых непутевых в мире полицейских. На этот раз они противостоят отряду настоящих ниндзя…

Рейтинг на КиноПоиск:6.000[/field]
Рейтинг на IMDB:4.4/10[/field][/field]

Видео: 720х480,NTSC (4:3), 29,970 кадр/сек,MPEG2 Video, ~ 7500 Кбит/сек, 0.521 Бит/(Пиксели*Кадры)
Аудио #1:Русский, 48,0 КГц, AC3, 2 канала(ов), ~192 Кбит/сек [Профессиональный (одноголосый)]
Аудио #2:Русский, 48,0 КГц, AC3, 2 канала(ов), ~192 Кбит/сек [Профессиональный (одноголосый)]
Аудио #3:Испанский, 48,0 КГц, AC3, 2 канала(ов), ~192 Кбит/сек [Оригинал][/field]

Доп. информация: Диск был скачан с зарубежного трекера. В фильме присутствуют две русские дорожки, перевод на них одинаковый, различия в том, что первая дорожка это звук оцифрованный с кассеты и подчищенный, а вторая это микс этой дорожки с оригинальной.
Перечень ПО: PGCDemux; BeSweet + BeLight; Sound Forge; Adobe Audition; Sony Vegas; MuxMan; DVDRemake Pro


Полное имя: l:\Взрывная бригада против ниндзя DVD-5\VIDEO_TS\VTS_01_1.VOB
Формат: MPEG-PS
Размер файла: 1024 Мбайт
Продолжительность: 23 м.
Общий поток: 6098 Кбит/сек
Видео
Идентификатор: 224 (0xE0)
Формат: MPEG Video
Версия формата: Version 2
Профиль формата: Main@Main
Параметр BVOP формата: Да
Параметр матрицы формата: По умолчанию
Продолжительность: 23 м.
Вид битрейта: Переменный
Битрейт: 5401 Кбит/сек
Номинальный битрейт: 7500 Кбит/сек
Ширина: 720 пикс.
Высота: 480 пикс.
Соотношение сторон: 4:3
Частота кадров: 29,970 кадр/сек
Стандарт вещания: NTSC
Цветовое пространство: YUV
Подвыборка цветности: 4:2:0
Битовая глубина: 8 бит
Тип развёртки: Чересстрочная
Порядок развёртки: Верхнее поле первое
Метод сжатия: С потерями
Бит/(Пиксели*Кадры): 0.521
Размер потока: 907 Мбайт (89%)
Аудио #1
Идентификатор: 128 (0x80)
Формат: AC-3
Формат/Информация: Audio Coding 3
Расширение режима: CM (complete main)
Продолжительность: 23 м.
Вид битрейта: Постоянный
Битрейт: 192 Кбит/сек
Канал(ы): 2 канала(ов)
Расположение каналов: Front: L R
Частота: 48,0 КГц
Битовая глубина: 16 бит
Метод сжатия: С потерями
Размер потока: 32,2 Мбайт (3%)
Аудио #2
Идентификатор: 129 (0x81)
Формат: AC-3
Формат/Информация: Audio Coding 3
Расширение режима: CM (complete main)
Продолжительность: 23 м.
Вид битрейта: Постоянный
Битрейт: 192 Кбит/сек
Канал(ы): 2 канала(ов)
Расположение каналов: Front: L R
Частота: 48,0 КГц
Битовая глубина: 16 бит
Метод сжатия: С потерями
Размер потока: 32,2 Мбайт (3%)
Аудио #3
Идентификатор: 130 (0x82)
Формат: AC-3
Формат/Информация: Audio Coding 3
Расширение режима: CM (complete main)
Продолжительность: 23 м.
Вид битрейта: Постоянный
Битрейт: 192 Кбит/сек
Канал(ы): 2 канала(ов)
Расположение каналов: Front: L R
Частота: 48,0 КГц
Битовая глубина: 16 бит
Метод сжатия: С потерями
Размер потока: 32,2 Мбайт (3%)
Меню




















Поделиться:




реклама партнёра


Вернуться к началу
 Профиль Отправить личное сообщение  
 
   Похожие торренты   Автор   Торрент   Размер 
В этой теме нет новых непрочитанных сообщений. Зомби-ниндзя против спецназа / Zombie Ninjas vs Black Ops (Роди Клод) [боевик, 2015] DVDRip, dvo

Dracon

1545 | 175

1.46 ГБ

В этой теме нет новых непрочитанных сообщений. Три ниндзя / 3 Ninjas [комедия, семейный, спорт, 1992] HDRip, Mvo

salma3

50 | 5

1.45 ГБ

В этой теме нет новых непрочитанных сообщений. Чужие против ниндзя / Alien vs. Ninja [ужасы, боевик, фантастика, комедия, 2010] DVDRip, Mvo

salma3

4 | 2

1.37 ГБ

В этой теме нет новых непрочитанных сообщений. Бэтмен против Супермена: На заре справедливости / Batman v Superman: Dawn of Justice [фантастика, боевик, приключения, 2016] DVD5, Dub+Sub

salma3

28 | 14

4.37 ГБ

В этой теме нет новых непрочитанных сообщений. Ниндзя из Беверли Хиллз / Beverly Hills Ninja [Комедия, приключения, боевик, 1997] HDRip, Mvo

salma3

92 | 9

1.46 ГБ

В этой теме нет новых непрочитанных сообщений. Черепашки-ниндзя 2 / Teenage Mutant Ninja Turtles: Out of the Shadows [фантастика, боевик, комедия, приключения, 2016] BDRip, Dub [Лицензия]

salma3

249 | 7

2.18 ГБ

В этой теме нет новых непрочитанных сообщений. Черепашки-ниндзя 2 / Teenage Mutant Ninja Turtles: Out of the Shadows [фантастика, боевик, комедия, приключения, 2016] WEB-DL 720p, Dub [iTunes]

marya111

778 | 14

3.58 ГБ


Начать новую тему Ответить на тему  [ 1 сообщение ] 




Для Мосгорсуда, Роскомнадзора и рекламодателей:: mosgorsud-torrent[собачка]yandex.ru