Торрент файл
скачать торрент магнет ссылка Добавлен: 08 янв 2012, 22:09
Размер: 4.36 ГБ
Сидеров: 1
Личеров: 6
Автор

СообщениеДобавлено: 08 янв 2012, 22:09 

Не в сети
Супермодератор
Аватара пользователя
Дата регистрации:
11 апр 2010, 18:10
Спасибо: 5801 / 7
Сообщения: 56779
Городской романс

Перевод: Не требуется
Субтитры: отсутствуют
Формат: DVD5, DVD Video, MPEG2, AC3
Страна: СССР
Режиссер: Петр Тодоровский
Жанр: Драма, мелодрама
Продолжительность: 01:34:34
Год выпуска: 1970

В ролях: Мария Соломина, Евгений Киндинов, Зиновий Гердт, Геннадий Сайфулин, Леонид Дьячков, Светлана Харитонова, А. Цофнас, Ирина Короткова, Ольга Сошникова, Ангелина Степанова

Описание: Маша и Женя встретились в огромном городе и полюбили друг друга. Он — врач-рентгенолог, она — студентка педучилища. Совместная жизнь только укрепила любовь Маши, но вызвала растерянность Жени. Он оказался не готов к «потере свободы».Почувствовав это, Маша нашла в себе силы уйти и постараться забыть свою любовь. Но теперь Женя понял, что он теряет, может быть, самое главное в своей жизни…Видимо, должно пройти ещё какое-то время, чтобы Маша и Женя поняли, что жить друг без друга не смогут: ведь их любовь настоящая…

Рейтинг на КиноПоиск:8.588[/field]
Рейтинг на IMDB:7.6/10[/field][/field]

Видео: 720х576,PAL (16:9), 25,000 кадр/сек,MPEG2 Video, ~9200 Кбит/сек
Аудио: Русский, 48,0 КГц, AC3, 2 канала(ов), ~192 Кбит/сек


Полное имя: I:\Фильмы DVD\Наши\Городской романс DVD-5\VIDEO_TS\VTS_01_1.VOB
Формат: MPEG-PS
Размер файла: 1024 Мбайт
Продолжительность: 21 м.
Общий поток: 6567 Кбит/сек
Видео
Идентификатор: 224 (0xE0)
Формат: MPEG Video
Версия формата: Version 2
Профиль формата: Main@Main
Параметр BVOP формата: Да
Параметр матрицы формата: По умолчанию
Продолжительность: 21 м.
Вид битрейта: Переменный
Битрейт: 6245 Кбит/сек
Номинальный битрейт: 9200 Кбит/сек
Ширина: 720 пикс.
Высота: 576 пикс.
Соотношение сторон: 16:9
Частота кадров: 25,000 кадр/сек
Стандарт вещания: PAL
Цветовое пространство: YUV
Подвыборка цветности: 4:2:0
Битовая глубина: 8 бит
Тип развёртки: Чересстрочная
Порядок развёртки: Нижнее поле первое
Метод сжатия: С потерями
Бит/(Пиксели*Кадры): 0.602
Размер потока: 974 Мбайт (95%)
Аудио
Идентификатор: 128 (0x80)
Формат: AC-3
Формат/Информация: Audio Coding 3
Расширение режима: CM (complete main)
Продолжительность: 21 м.
Вид битрейта: Постоянный
Битрейт: 192 Кбит/сек
Канал(ы): 2 канала(ов)
Расположение каналов: Front: L R
Частота: 48,0 КГц
Битовая глубина: 16 бит
Метод сжатия: С потерями
Размер потока: 29,9 Мбайт (3%)
Меню


















Поделиться:




реклама партнёра


Вернуться к началу
 Профиль Отправить личное сообщение  
 
   Похожие торренты   Автор   Торрент   Размер 
В этой теме нет новых непрочитанных сообщений. Романс для корнета / Romance pro kridlovku [Драма, 1966] DVDRip, Avo

salma3

13 | 14

1.37 ГБ

В этой теме нет новых непрочитанных сообщений. Под знаком Луны [01-04 из 04] (Пётр Степин) [Драма, мелодрама, 2015] SATRip

Dracon

2159 | 258

2.44 ГБ

В этой теме нет новых непрочитанных сообщений. Потому что люблю [01-02 из 02] (Пётр Степин) [Драма, Мелодрама, 2015] HDTV 1080i

Dracon

55 | 4

10.97 ГБ

В этой теме нет новых непрочитанных сообщений. Потому что люблю [01-02 из 02] (Пётр Степин) [Драма, Мелодрама, 2015] HDTVRip 720p

Dracon

43 | 4

7.39 ГБ

В этой теме нет новых непрочитанных сообщений. Под знаком Луны [01-02 из 02] (Пётр Степин) [Драма, мелодрама, 2015] HDTV 1080i

Dracon

131 | 41

10.5 ГБ

В этой теме нет новых непрочитанных сообщений. Под знаком Луны [01-02 из 02] (Пётр Степин) [Драма, мелодрама, 2015] HDTVRip 720p

Dracon

205 | 49

7.39 ГБ

В этой теме нет новых непрочитанных сообщений. Огни городской окраины / Laitakaupungin valot / Lights in the Dusk (Аки Каурисмяки / Aki Kaurismaki) [2006 г., драма, криминал, BDRip] MVO + Sub

Alfredovich

6 | 4

1.46 ГБ


Начать новую тему Ответить на тему  [ 1 сообщение ] 




Для Мосгорсуда, Роскомнадзора и рекламодателей:: mosgorsud-torrent[собачка]yandex.ru