Торрент файл
скачать торрент магнет ссылка Добавлен: 08 янв 2012, 22:09
Размер: 4.04 ГБ
Сидеров: 2
Личеров: 4
Автор

СообщениеДобавлено: 08 янв 2012, 22:09 

Не в сети
Супермодератор
Аватара пользователя
Дата регистрации:
11 апр 2010, 18:10
Спасибо: 5801 / 7
Сообщения: 56779
На Муромской дорожке


Перевод: Не требуется
Субтитры: Отсутствуют
Формат: DVD5, DVD Video, MPEG2, AC3
Страна: Россия, Германия, Корея Южная
Режиссер: Федор Петрухин
Жанр: мелодрама
Продолжительность: 01:25:13
Год выпуска: 1993

В ролях: Юрга Кураускайте, Сейдулла Молдаханов, Аристарх Ливанов, Елена Кондулайнен, Ли Ми Джи, Валерий Кудряшов, Николай Михеев, Борис Новиков, Андрей Толубеев, Сергей Макаров

Описание: История любви китайского купца Чжоу и русской девушки Ольги, встретившихся и обвенчавшихся в Москве в годы НЭПа. А потом ему пришлось уехать по торговым делам в Китай — и выяснилось, что разлука их затянется на долгие годы.
Будут кораблекрушение, плен, нежданное богатство, судьба будет бросать героя то вверх, то вниз — но когда, пройдя через все мытарства, Чжоу вернется к Ольге, он найдет ее, умирающей от чахотки. И тогда он попытается бежать с ней из России.


Рейтинг на КиноПоиске: 7.898/10

Видео: 720x576 (PAL 4/3), MPEG-2 Video, 25.000 fps, ~6092 kbps avg
Аудио: 48 kHz, AC3, 3/2 (L,C,R,l,r) + LFE ch, ~448.00 kbps avg


Формат: MPEG-PS
Размер файла: 1024 Мбайт
Продолжительность: 21 м.
Общий поток: 6672 Кбит/сек

Видео
Идентификатор: 224 (0xE0)
Формат: MPEG Video
Версия формата: Version 2
Профиль формата: Main@Main
Параметр BVOP формата: Да
Параметр матрицы формата: Выборочная
Параметры GOP формата: M=3, N=15
Продолжительность: 21 м.
Вид битрейта: Переменный
Битрейт: 6092 Кбит/сек
Максимальный битрейт: 8000 Кбит/сек
Ширина: 720 пикс.
Высота: 576 пикс.
Соотношение сторон: 4:3
Частота кадров: 25,000 кадр/сек
Стандарт вещания: PAL
Цветовое пространство: YUV
Подвыборка цветности: 4:2:0
Битовая глубина: 8 бит
Тип развёртки: Чересстрочная
Порядок развёртки: Верхнее поле первое
Метод сжатия: С потерями
Бит/(Пиксели*Кадры): 0.588
Размер потока: 935 Мбайт (91%)

Аудио
Идентификатор: 189 (0xBD)-128 (0x80)
Формат: AC-3
Формат/Информация: Audio Coding 3
Расширение режима: CM (complete main)
Режим смешивания: DVD-Video
Продолжительность: 21 м.
Вид битрейта: Постоянный
Битрейт: 448 Кбит/сек
Каналы: 5 каналов
Расположение каналов: Front: L C R, Side: L R
Частота: 48,0 КГц
Битовая глубина: 16 бит
Метод сжатия: С потерями
Размер потока: 68,7 Мбайт (7%)

Меню

























Поделиться:




реклама партнёра


Вернуться к началу
 Профиль Отправить личное сообщение  
 
   Похожие торренты   Автор   Торрент   Размер 
В этой теме нет новых непрочитанных сообщений. Особый случай [03x051-094] (Фёдор Петрухин) [Мистическая драма, криминальный детектив, 2015] HDTVRip

Dracon

1 | 3

23.62 ГБ

В этой теме нет новых непрочитанных сообщений. Особый случай [03x001-008, 010-050] (Фёдор Петрухин) [Мистическая драма, криминальный детектив, 2015] HDTVRip

Dracon

10 | 5

26.2 ГБ

В этой теме нет новых непрочитанных сообщений. Доппельгангер / Doppelganger [ужасы, триллер, мелодрама, 1993] DVD5, Avo

salma3

32 | 18

4.34 ГБ

В этой теме нет новых непрочитанных сообщений. Крепость 1-2 / Fortress; Fortress II: Re-entry [Фантастика, боевик, мелодрама, 1993-2000] 2 x DVD5, Mvo+Sub [Лицензия]

salma3

9 | 5

8.02 ГБ

В этой теме нет новых непрочитанных сообщений. Филадельфийский эксперимент 2 / Philadelphia Experiment II [Фантастика, 1993] DVD5, Dvo

salma3

18 | 3

4.26 ГБ

В этой теме нет новых непрочитанных сообщений. Елена в ящике / Boxing Helena [Триллер, драма, 1993] DVD5, Avo

salma3

69 | 5

3.89 ГБ

В этой теме нет новых непрочитанных сообщений. УЧИЛКА / TEACHER (Алексей Петрухин) [2015, Драма, боевик, криминал , WEB-DL 1080р ] [DD5.1] [Цифровая лицензия iTunes]

Враг Нароода

4 | 5

5.18 ГБ


Начать новую тему Ответить на тему  [ 1 сообщение ] 




Для Мосгорсуда, Роскомнадзора и рекламодателей:: mosgorsud-torrent[собачка]yandex.ru