Торрент файл
скачать торрент магнет ссылка Добавлен: 08 янв 2012, 22:09
Размер: 4.19 ГБ
Сидеров: 0
Личеров: 8
Автор

СообщениеДобавлено: 08 янв 2012, 22:09 

Не в сети
Супермодератор
Аватара пользователя
Дата регистрации:
11 апр 2010, 18:10
Спасибо: 5962 / 7
Сообщения: 56765
Внимание, черепаха!

Перевод: Не требуется
Субтитры: отсутствуют
Формат: DVD5, DVD Video, MPEG2, DVD-AUDIO
Страна: СССР
Режиссер: Ролан Быков
Жанр: Комедия, семейный
Продолжительность: 01:21:17
Год выпуска: 1972

В ролях: Алексей Ершов, Андрей Самотолкин, Михаил Мартиросян, Галина Буданова, Елена Рябухина, Галина Вербицкая, Марьяна Смирнова, Алексей Баталов, Ирен Азер, Лилиан Малкина

Описание: Двое первоклассников решили выкрасть из живого уголка черепаху, чтобы провести эксперимент — подложить ее под танк. Но допустить этого не может их одноклассница Таня, привлекшая к спасению черепахи и детей, и взрослых.

Рейтинг на КиноПоиск:7.630[/field]
Рейтинг на IMDB:6.8/10[/field][/field]

Видео: 720х576,PAL (4:3), 25,000 кадр/сек,MPEG2 Video, ~5501 Кбит/сек,0.531 Бит/(Пиксели*Кадры)
Аудио: Русский, 48,0 КГц, PCM, 2 канала(ов), ~1536 Кбит/сек

Полное имя: I:\Фильмы DVD\Наши\Внимание черепаха DVD5\VIDEO_TS\VTS_02_1.VOB
Формат: MPEG-PS
Размер файла: 1024 Мбайт
Продолжительность: 19 м.
Общий поток: 7180 Кбит/сек
Видео
Идентификатор: 224 (0xE0)
Формат: MPEG Video
Версия формата: Version 2
Профиль формата: Main@Main
Параметр BVOP формата: Да
Параметр матрицы формата: По умолчанию
Продолжительность: 19 м.
Вид битрейта: Постоянный
Битрейт: 5501 Кбит/сек
Ширина: 720 пикс.
Высота: 576 пикс.
Соотношение сторон: 4:3
Частота кадров: 25,000 кадр/сек
Стандарт вещания: PAL
Цветовое пространство: YUV
Подвыборка цветности: 4:2:0
Битовая глубина: 8 бит
Тип развёртки: Чересстрочная
Метод сжатия: С потерями
Бит/(Пиксели*Кадры): 0.531
Размер потока: 784 Мбайт (77%)
Аудио
Идентификатор: 160 (0xA0)
Формат: PCM
Параметр Endianness формата: Big
Параметр Sign формата: Signed
Режим смешивания: DVD-Video
Продолжительность: 19 м.
Вид битрейта: Постоянный
Битрейт: 1536 Кбит/сек
Канал(ы): 2 канала(ов)
Расположение каналов: Front: L R
Частота: 48,0 КГц
Битовая глубина: 16 бит
Задержка видео: 961 мс.
Размер потока: 219 Мбайт (21%)
Меню


















Поделиться:




реклама партнёра


Вернуться к началу
 Профиль Отправить личное сообщение  
 
   Похожие торренты   Автор   Торрент   Размер 
В этой теме нет новых непрочитанных сообщений. Сумасшедшие на стадионе / Les fous du stade [комедия,спорт, 1972] DVD5, DUB+MVO

salma3

4 | 3

4.35 ГБ

В этой теме нет новых непрочитанных сообщений. Принц и нищий [приключения, семейный, 1972] DVDRip-AVC

salma3

12 | 7

1.45 ГБ

В этой теме нет новых непрочитанных сообщений. Красная черепаха / The Red Turtle / La tortue rouge [мультфильм, фэнтези, 2016] HDRip

salma3

232 | 45

1.45 ГБ

В этой теме нет новых непрочитанных сообщений. Красная черепаха / The Red Turtle / La tortue rouge (Мультфильм, фэнтези, 2016) HDRip от Generalfilm | КПК

marya111

19 | 5

336.48 МБ

В этой теме нет новых непрочитанных сообщений. Красная черепаха / The Red Turtle / La tortue rouge ( мультфильм, фэнтези, 2016) BDRip 720p от NNNB | 60 fps

marya111

535 | 63

3.03 ГБ

В этой теме нет новых непрочитанных сообщений. Приключения Паддингтона / Paddington (Пол Кинг) [комедия, семейный, 2014] DVD5, Dub [лицензия]

Dracon

58 | 6

4.37 ГБ

В этой теме нет новых непрочитанных сообщений. Аисты / Storks (Мультфильм, фэнтези, комедия, приключения, семейный, 2016) DVD5

marya111

93 | 28

4.16 ГБ


Начать новую тему Ответить на тему  [ 1 сообщение ] 




Для Мосгорсуда, Роскомнадзора и рекламодателей:: mosgorsud-torrent[собачка]yandex.ru