Торрент файл
скачать торрент магнет ссылка Добавлен: 08 янв 2012, 22:09
Размер: 4.28 ГБ
Сидеров: 0
Личеров: 7
Автор

СообщениеДобавлено: 08 янв 2012, 22:09 

Не в сети
Супермодератор
Аватара пользователя
Дата регистрации:
11 апр 2010, 18:10
Спасибо: 5960 / 7
Сообщения: 56765
Двойной капкан (2 серии из 2)

Перевод: Не требуется
Субтитры: отсутствуют
Формат: DVD5, DVD Video, MPEG2, AC3
Страна: CCCP
Режиссер: Алоиз Бренч
Жанр: Криминал, детектив
Продолжительность: 02:11:19
Год выпуска: 1985
В ролях: Альгис Матулёнис, Лилита Озолиня, Юрис Леяскалн, Янис Зариньш, Элите Сагатаускайте, Юрис Плявиньш, Петерис Гаудиньш, Юрис Лиснерс, Улдис Думпи,с Гирт Яковлев
Описание: Во главе группы преступников, перепродающих за границу предметы искусства, стоят администратор бара и основатель «дела». Но первый не хочет делиться со своим партнером. И тогда второй решает прибегнуть к помощи уголовника-рецидивиста.

Рейтинг на КиноПоиск:7.222[/field]
Рейтинг на IMDB:6.4/10[/field][/field]

Видео: 720х576,PAL (4:3), 25,000 кадр/сек,MPEG2 Video, ~ 7000 Кбит/сек, 0.415 Бит/(Пиксели*Кадры)
Аудио: Русский, 48,0 КГц, AC3, 2 канала(ов), ~192 Кбит/сек

Сэмпл


Полное имя: C:\Users\Петр\Documents\ТОРРЕНТЫ И Р2Р\Двойной капкан DVD-5\VIDEO_TS\VTS_01_1.VOB
Формат: MPEG-PS
Размер файла: 1024 Мбайт
Продолжительность: 31 м.
Общий поток: 4586 Кбит/сек
Видео
Идентификатор: 224 (0xE0)
Формат: MPEG Video
Версия формата: Version 2
Профиль формата: Main@Main
Параметр BVOP формата: Да
Параметр матрицы формата: По умолчанию
Параметры GOP формата: M=3, N=15
Продолжительность: 31 м.
Вид битрейта: Постоянный
Битрейт: 4303 Кбит/сек
Номинальный битрейт: 7000 Кбит/сек
Ширина: 720 пикс.
Высота: 576 пикс.
Соотношение сторон: 4:3
Частота кадров: 25,000 кадр/сек
Стандарт вещания: PAL
Цветовое пространство: YUV
Подвыборка цветности: 4:2:0
Битовая глубина: 8 бит
Тип развёртки: Чересстрочная
Порядок развёртки: Верхнее поле первое
Метод сжатия: С потерями
Бит/(Пиксели*Кадры): 0.415
Размер потока: 960 Мбайт (94%)
Аудио
Идентификатор: 128 (0x80)
Формат: AC-3
Формат/Информация: Audio Coding 3
Расширение режима: CM (complete main)
Продолжительность: 31 м.
Вид битрейта: Постоянный
Битрейт: 192 Кбит/сек
Канал(ы): 2 канала(ов)
Расположение каналов: Front: L R
Частота: 48,0 КГц
Битовая глубина: 16 бит
Метод сжатия: С потерями
Задержка видео: -80 мс.
Размер потока: 42,9 Мбайт (4%)
Меню






















Поделиться:




реклама партнёра


Вернуться к началу
 Профиль Отправить личное сообщение  
 
   Похожие торренты   Автор   Торрент   Размер 
В этой теме нет новых непрочитанных сообщений. Капкан для Золушки [Серии 1-4 из 4] (Вячеслав Лавров) [Детектив, 2014] WEBRip

Dracon

0 | 2

2.15 ГБ

В этой теме нет новых непрочитанных сообщений. Двойной просчет / Double Jeopardy [триллер, криминал, детектив, 1999] WEB-DLRip-AVC, Dub

salma3

123 | 32

745.76 МБ

В этой теме нет новых непрочитанных сообщений. Двойной просчет / Double Jeopardy [триллер, драма, криминал, детектив, 1999] WEB-DL 720p, Dvo+Avo+Sub

salma3

22 | 2

3.82 ГБ

В этой теме нет новых непрочитанных сообщений. Двойной просчет / Double Jeopardy [Триллер, Драма, Детектив, Криминал, 1999] WEBRip-AVC, Dub

salma3

5 | 90

4.7 ГБ

В этой теме нет новых непрочитанных сообщений. Двойной просчет / Double Jeopardy [триллер, криминал, детектив, 1999] WEBRip 1080p, Dvo+Avo+Sub

salma3

27 | 4

8.49 ГБ

В этой теме нет новых непрочитанных сообщений. Двойной обман / Double Jeopardy [ужасы, триллер, мелодрама, криминал, детектив, 1983] HDRip, Avo

salma3

53 | 15

1.46 ГБ

В этой теме нет новых непрочитанных сообщений. Капкан для Золушки [01-04 из 04] (Вячеслав Лавров) [Детектив, 2014] WEB-DL 1080p

Dracon

36 | 12

3.79 ГБ


Начать новую тему Ответить на тему  [ 1 сообщение ] 




Для Мосгорсуда, Роскомнадзора и рекламодателей:: mosgorsud-torrent[собачка]yandex.ru