Торрент файл
скачать торрент магнет ссылка Добавлен: 08 янв 2012, 22:08
Размер: 3.26 ГБ
Сидеров: 2
Личеров: 8
Автор

СообщениеДобавлено: 08 янв 2012, 22:08 

Не в сети
Супермодератор
Аватара пользователя
Дата регистрации:
11 апр 2010, 18:10
Спасибо: 5960 / 7
Сообщения: 56765
Братья Блюз / The Blues Brothers

Перевод: Любительский (одноголосый)
Cубтитры:Английские
Формат: DVD5, DVD Video, MPEG2, AC3
Страна: США
Режиссер: Джон Лэндис
Жанр: Мюзикл, боевик, комедия, музыка
Продолжительность: 02:27:35
Год выпуска: 1980

В ролях: Джон Белуши, Дэн Эйкройд, Джеймс Браун, Кэб Кэллоуэй, Рэй Чарльз, Арета Франклин, Стив Кроппер, Дональд Данн, Мёрфи Данн, Уилли Холл

Описание: Братья-музыканты Джейк и Элвуд Блюзы узнают, что их родная церковь будет снесена, если за нее вовремя не внесут плату в 5 тысяч долларов. На поиск денег у братьев не много времени, и они решают дать концерт.Однако Джейк только что вышел из тюрьмы, а у Элвуда свои неприятности с законом, и добраться до них мечтают все кому не лень: полиция, бандиты, неонацисты. Прежде чем спасти церковь, братья Блюз устроят настоящий беспредел на улицах Чикаго…

Рейтинг на КиноПоиск:7.747[/field]
Рейтинг MPAA:R[/field]
Рейтинг на IMDB:7.9/10[/field][/field]

Видео: 720x480, (Component 16:9), MPEG2 Video, 23,976 кадр/сек, ~ 9800 Кбит/сек
Аудио #1: Английский, 48,0 КГц, AC3, 6 ch, ~448 Кбит/сек [Оригинал]
Аудио #2: Русский, 48,0 КГц, AC3, 6 ch, ~448 Кбит/сек [Любительский (одноголосый)]


Полное имя: H:\Фильмы DVD\Братья Блюз DVD-5\VIDEO_TS\VTS_01_1.VOB
Формат: MPEG-PS
Размер файла: 1024 Мбайт
Продолжительность: 47 м.
Общий поток: 3037 Кбит/сек
Видео
Идентификатор: 224 (0xE0)
Формат: MPEG Video
Версия формата: Version 2
Профиль формата: Main@Main
Параметр BVOP формата: Да
Параметр матрицы формата: По умолчанию
Продолжительность: 47 м.
Вид битрейта: Переменный
Битрейт: 2081 Кбит/сек
Номинальный битрейт: 9800 Кбит/сек
Ширина: 720 пикс.
Высота: 480 пикс.
Соотношение сторон: 16:9
Частота кадров: 23,976 кадр/сек
Стандарт вещания: Component
Цветовое пространство: YUV
Подвыборка цветности: 4:2:0
Битовая глубина: 8 бит
Тип развёртки: Прогрессивная
Порядок развёртки: 2:3 Pulldown
Метод сжатия: С потерями
Бит/(Пиксели*Кадры): 0.251
Размер потока: 702 Мбайт (69%)
Аудио #1
Идентификатор: 128 (0x80)
Формат: AC-3
Формат/Информация: Audio Coding 3
Расширение режима: CM (complete main)
Продолжительность: 47 м.
Вид битрейта: Постоянный
Битрейт: 448 Кбит/сек
Канал(ы): 6 канала(ов)
Расположение каналов: Front: L C R, Side: L R, LFE
Частота: 48,0 КГц
Битовая глубина: 16 бит
Метод сжатия: С потерями
Размер потока: 151 Мбайт (15%)
Аудио #2
Идентификатор: 129 (0x81)
Формат: AC-3
Формат/Информация: Audio Coding 3
Расширение режима: CM (complete main)
Продолжительность: 47 м.
Вид битрейта: Постоянный
Битрейт: 448 Кбит/сек
Канал(ы): 6 канала(ов)
Расположение каналов: Front: L C R, Side: L R, LFE
Частота: 48,0 КГц
Битовая глубина: 16 бит
Метод сжатия: С потерями
Размер потока: 151 Мбайт (15%)
Текст
Идентификатор: 32 (0x20)
Формат: RLE
Формат/Информация: Run-length encoding
Меню




























Поделиться:




реклама партнёра


Вернуться к началу
 Профиль Отправить личное сообщение  
 
   Похожие торренты   Автор   Торрент   Размер 
В этой теме нет новых непрочитанных сообщений. Братья Блюз / The Blues Brothers [боевик, комедия, криминал, музыка, 1980] Blu-ray 1080p, Dub+Sub

salma3

7 | 8

30.9 ГБ

В этой теме нет новых непрочитанных сообщений. Братья Блюз 2000 / Blues Brothers 2000 [боевик, комедия, криминал, музыка, 1998] Blu-ray 1080p, Mvo+Sub

salma3

11 | 7

35.86 ГБ

В этой теме нет новых непрочитанных сообщений. Братья / Brothers [ Боевик, драма, спорт, 2015] HDRip-AVC, RUS SUB

msmara

87 | 1

2.24 ГБ

В этой теме нет новых непрочитанных сообщений. Братья / Brothers [боевик, драма, спорт, 2015] WEB-DLRip, Dvo

salma3

2367 | 531

2.05 ГБ

В этой теме нет новых непрочитанных сообщений. Братья / Brothers [Драма, боевик, мелодрама, военный, 2016] WEB-DLRip-AVC, Dvo

salma3

120 | 48

1.47 ГБ

В этой теме нет новых непрочитанных сообщений. Право на бой / Братья / Brothers [Боевик, драма, спорт, 2015] HDRip, Mvo [SDI Media]

salma3

2785 | 180

1.46 ГБ

В этой теме нет новых непрочитанных сообщений. Семейство Блюз под прикрытием / Undercover Blues [комедия, 1993] HDTVRip 720p, Mvo+3Avo

salma3

26 | 7

4.68 ГБ


Начать новую тему Ответить на тему  [ 1 сообщение ] 




Для Мосгорсуда, Роскомнадзора и рекламодателей:: mosgorsud-torrent[собачка]yandex.ru