Торрент файл
скачать торрент магнет ссылка Добавлен: 08 янв 2012, 22:08
Размер: 3.87 ГБ
Сидеров: 4
Личеров: 5
Автор

СообщениеДобавлено: 08 янв 2012, 22:08 

Не в сети
Супермодератор
Аватара пользователя
Дата регистрации:
11 апр 2010, 18:10
Спасибо: 5965 / 7
Сообщения: 56761
За последней чертой

Перевод: Не требуется
Субтитры: отсутствуют
Формат: DVD5, DVD Video, MPEG2, AC3
Страна: СССР
Режиссер: Николай Стамбула
Жанр: Драма
Продолжительность: 01:42:11
Год выпуска: 1991
В ролях: Евгений Сидихин, Игорь Тальков, Алина Таркинская, Александр Казаков, Виктор Степанов, Татьяна Лютаева, Екатерина Кмит, Владимир Тальков, Владимир Яковлев, Игорь Миркурбанов, Владимир Нисков, Александр Филяс, Федор Смирнов, Владимир Кашпур, Олег Маслов
Описание: Прославленный боксер оказывается выброшенным за борт жизни. Судьба не оставляет ему выбора: он связывается с преступной бандой. Но есть черта, которую он не в состоянии переступить. И герой решается на отчаянный шаг…

Рейтинг на КиноПоиск:7.511[/field]
Рейтинг на IMDB:7.9/10[/field][/field]

Видео: 720x576, ( PAL 4:3), MPEG2 Video, 25,000 кадр/сек, ~ 5 000 Кбит/сек,0.482 Бит/(Пиксели*Кадры)
Аудио: Русский, 48,0 КГц, AC3, 2 канала(ов), ~192 Кбит/сек

Полное имя: I:\Фильмы\За последней чертой DVD-5\VIDEO_TS\VTS_02_1.VOB
Формат: MPEG-PS
Размер файла: 1024 Мбайт
Продолжительность: 27 м.
Общий поток: 5294 Кбит/сек
Видео
Идентификатор: 224 (0xE0)
Формат: MPEG Video
Версия формата: Version 2
Профиль формата: Main@Main
Параметр BVOP формата: Да
Параметр матрицы формата: По умолчанию
Продолжительность: 27 м.
Вид битрейта: Постоянный
Битрейт: 5000 Кбит/сек
Ширина: 720 пикс.
Высота: 576 пикс.
Соотношение сторон: 4:3
Частота кадров: 25,000 кадр/сек
Стандарт вещания: PAL
Цветовое пространство: YUV
Подвыборка цветности: 4:2:0
Битовая глубина: 8 бит
Тип развёртки: Чересстрочная
Порядок развёртки: Нижнее поле первое
Метод сжатия: С потерями
Бит/(Пиксели*Кадры): 0.482
Размер потока: 966 Мбайт (94%)
Аудио
Идентификатор: 128 (0x80)
Формат: AC-3
Формат/Информация: Audio Coding 3
Расширение режима: CM (complete main)
Продолжительность: 27 м.
Вид битрейта: Постоянный
Битрейт: 192 Кбит/сек
Канал(ы): 2 канала(ов)
Расположение каналов: Front: L R
Частота: 48,0 КГц
Битовая глубина: 16 бит
Метод сжатия: С потерями
Размер потока: 37,1 Мбайт (4%)




















Поделиться:




реклама партнёра


Вернуться к началу
 Профиль Отправить личное сообщение  
 
   Похожие торренты   Автор   Торрент   Размер 
В этой теме нет новых непрочитанных сообщений. Право последней ночи [Мелодрама, 2016] WEB-DLRip-AVC

salma3

41 | 8

1.37 ГБ

В этой теме нет новых непрочитанных сообщений. Право последней ночи [Мелодрама, 2016] WEB-DL 1080p

salma3

112 | 15

2.6 ГБ

В этой теме нет новых непрочитанных сообщений. Право последней ночи [Мелодрама, 2016] WEB-DLRip

salma3

284 | 42

1.37 ГБ

В этой теме нет новых непрочитанных сообщений. Отель последней надежды [01-04 из 04] (Детектив, мелодрама, 2016) WEB-DL 1080p

marya111

57 | 5

3.69 ГБ

В этой теме нет новых непрочитанных сообщений. Не говори маме, что няня умерла / Don't Tell Mom the Babysitter's Dead [комедия, семейный, 1991] DVD5, Dvo

salma3

22 | 22

4.03 ГБ

В этой теме нет новых непрочитанных сообщений. Окно (Николай Николайчук) [2015, драма, WEB-DLRip]

marya111

87 | 5

1.37 ГБ

В этой теме нет новых непрочитанных сообщений. Спарта (Николай Кудряшов) [2016, боевик, драма, WEB-DLRip | iTunes]

marya111

0 | 0

1.46 ГБ


Начать новую тему Ответить на тему  [ 1 сообщение ] 




Для Мосгорсуда, Роскомнадзора и рекламодателей:: mosgorsud-torrent[собачка]yandex.ru