Торрент файл
скачать торрент магнет ссылка Добавлен: 08 янв 2012, 22:08
Размер: 3.45 ГБ
Сидеров: 0
Личеров: 10
Автор

СообщениеДобавлено: 08 янв 2012, 22:08 

Не в сети
Супермодератор
Аватара пользователя
Дата регистрации:
11 апр 2010, 18:10
Спасибо: 5960 / 7
Сообщения: 56765
Законы привлекательности / Laws of Attraction

Перевод: Профессиональный (двухголосый)
Cубтитры: отсутствуют
Формат: DVD5, DVD Video, MPEG2, AC3
Страна: Германия, Великобритания, Ирландия
Режиссер: Питер Хауит
Жанр: Мелодрама, комедия
Продолжительность: 01:26:21
Год выпуска: 2004

В ролях: Пирс Броснан, Джулианна Мур, Майкл Шин, Паркер Поузи, Фрэнсис Фишер, Нора Данн, Хэзер Энн Нёрнбер,г Джонни Майерс, Майк Дойл, Аллан Хьюстон

Описание: Два успешных адвоката по бракоразводным делам, Дэниел Рафферти и Одри Вудс, представляя своих клиентов, нередко оказываются по разные стороны баррикад. Но встречи в зале судебных заседаний и за его пределами приводят к закономерному итогу — их ждет новое свидание в суде, но на этот раз им придется встать на место своих клиентов…

Рейтинг на КиноПоиск:7.362[/field]
Рейтинг MPAA :PG-13[/field]
Рейтинг на IMDB:5.7/10[/field][/field]

Видео: 720x576, ( PAL 16:9), MPEG2 Video, 25,000 кадр/сек, ~9000 Кбит/сек,0.481 Бит/(Пиксели*Кадры)
Аудио#1:Русский, 48,0 КГц, AC3, 2 канала(ов), ~192 Кбит/сек [Профессиональный (двухголосый)]
Аудио#2:Английский, 48,0 КГц, AC3, 2 канала(ов), ~192 Кбит/сек [Оригинал][/field]

Доп. информация: Релиз на DVD 21 апреля 2009, «Парадиз Видео»

Полное имя: D:\Законы привлекательности DVD-5\VIDEO_TS\VTS_01_1.VOB
Формат: MPEG-PS
Размер файла: 1024 Мбайт
Продолжительность: 26 м.
Общий поток: 5483 Кбит/сек
Видео
Идентификатор: 224 (0xE0)
Формат: MPEG Video
Версия формата: Version 2
Профиль формата: Main@Main
Параметр BVOP формата: Да
Параметр матрицы формата: По умолчанию
Продолжительность: 26 м.
Вид битрейта: Переменный
Битрейт: 4990 Кбит/сек
Номинальный битрейт: 9000 Кбит/сек
Ширина: 720 пикс.
Высота: 576 пикс.
Соотношение сторон: 16:9
Частота кадров: 25,000 кадр/сек
Стандарт вещания: PAL
Цветовое пространство: YUV
Подвыборка цветности: 4:2:0
Битовая глубина: 8 бит
Тип развёртки: Чересстрочная
Порядок развёртки: Верхнее поле первое
Метод сжатия: С потерями
Бит/(Пиксели*Кадры): 0.481
Размер потока: 932 Мбайт (91%)
Аудио #1
Идентификатор: 128 (0x80)
Формат: AC-3
Формат/Информация: Audio Coding 3
Расширение режима: CM (complete main)
Продолжительность: 26 м.
Вид битрейта: Постоянный
Битрейт: 192 Кбит/сек
Канал(ы): 2 канала(ов)
Расположение каналов: Front: L R
Частота: 48,0 КГц
Битовая глубина: 16 бит
Метод сжатия: С потерями
Задержка видео: -80 мс.
Размер потока: 35,8 Мбайт (4%)
Аудио #2
Идентификатор: 129 (0x81)
Формат: AC-3
Формат/Информация: Audio Coding 3
Расширение режима: CM (complete main)
Продолжительность: 26 м.
Вид битрейта: Постоянный
Битрейт: 192 Кбит/сек
Канал(ы): 2 канала(ов)
Расположение каналов: Front: L R
Частота: 48,0 КГц
Битовая глубина: 16 бит
Метод сжатия: С потерями
Задержка видео: -80 мс.
Размер потока: 35,8 Мбайт (4%)
Меню
























Поделиться:




реклама партнёра


Вернуться к началу
 Профиль Отправить личное сообщение  
 
   Похожие торренты   Автор   Торрент   Размер 
В этой теме нет новых непрочитанных сообщений. Законы привлекательности / Wan You Yin Li (Чи-Лын Квон) [2011, драма, HDTVRip] Sub

Nickolas3435

19 | 3

1.46 ГБ

В этой теме нет новых непрочитанных сообщений. Из 13 в 30 / 13 Going on 30 [Комедия, мелодрама, 2004] DVD5, Mvo

salma3

7 | 0

4.33 ГБ

В этой теме нет новых непрочитанных сообщений. Свояки / The In-Laws [боевик, триллер, комедия, криминал, приключения, 1979] BDRip, Mvo

salma3

103 | 16

1.45 ГБ

В этой теме нет новых непрочитанных сообщений. От всего сердца / All of My Heart (Питер ДеЛуиз /Peter DeLuise) [2015г., мелодрама, комедия, HDTVRip 720p] avo

Alfredovich

722 | 25

1.33 ГБ

В этой теме нет новых непрочитанных сообщений. Закон неизбежности / Laws of Gravity [драма, криминал, 1992] DVDRip] Dvo+Avo

salma3

3 | 1

1.46 ГБ

В этой теме нет новых непрочитанных сообщений. Законы Бруклина / Brooklyn Rules [Драма, криминал, гангстерский, 2007] BDRip 1080р, Mvo+Sub

salma3

53 | 11

7.05 ГБ

В этой теме нет новых непрочитанных сообщений. Хоббит: Битва пяти воинств / The Hobbit: The Battle of the Five Armies (Питер Джексон) [Фэнтези, Приключения, 2014] DVD5, Dub+Sub [iTunes]

Dracon

31 | 6

4.31 ГБ


Начать новую тему Ответить на тему  [ 1 сообщение ] 




Для Мосгорсуда, Роскомнадзора и рекламодателей:: mosgorsud-torrent[собачка]yandex.ru