Торрент файл
скачать торрент магнет ссылка Добавлен: 08 янв 2012, 22:07
Размер: 4.33 ГБ
Сидеров: 0
Личеров: 6
Автор

СообщениеДобавлено: 08 янв 2012, 22:07 

Не в сети
Супермодератор
Аватара пользователя
Дата регистрации:
11 апр 2010, 18:10
Спасибо: 5801 / 7
Сообщения: 56779
Зануда / L'emmerdeur

Перевод: Профессиональный (полное дублирование)
Cубтитры:Французские, английские
Формат: DVD5, DVD Video, MPEG2, AC3
Страна: Франция, Италия
Режиссер: Эдуар Молинаро
Жанр: Комедия
Продолжительность: 01:21:06
Год выпуска: 1973

В ролях: Лино Вентура, Жак Брель, Каролин Селлье, Жан-Пьер Даррас, Нино Кастельнуово, Анджела Кардиле, Микеле Гаммино, Ксавье Депраз, Франсуа Дирек, Жан-Луи Тристан

Роли дублировали:
Армен Джигарханян, Александр Белявский, Станислав Захаров, Валентин Смирнитский, Олег Мокшанцев[/field]

Описание: Судьба сводит в одном месте совершенно непохожих людей. Ральф Милан работает на мафию. Его высоко ценят за профессионализм и чистую работу при ликвидации опасных свидетелей. Франсуа Пийон хронический неудачник и зануда, которого бросила жена. Под тяжестью невзгод он склоняется к мысли о самоубийстве.Поначалу Милан не воспринимает нового знакомого всерьез, но занудство Пийона действительно не знает границ, а его навязчивая компания начинает угрожать выполнению важного контракта.

Рейтинг на КиноПоиск:7.518[/field]
Рейтинг MPAA :PG[/field]
Рейтинг на IMDB:7.1/10[/field][/field]

Видео: 720x576, ( PAL 16:9), MPEG2 Video, 25,000 кадр/сек, ~ 8500 Кбит/сек,0.612 Бит/(Пиксели*Кадры)
Аудио #1: Русский, 48,0 КГц, AC3, 2 канала(ов), ~160 Кбит/сек [Перевод: Авторский (Янкелевич)]
Аудио #2: Русский, 48,0 КГц, AC3, 2 канала(ов), ~160 Кбит/сек [Перевод: Профессиональный (полное дублирование)]
Аудио #3: Французский, 48,0 КГц, AC3, 6 канала(ов), ~448 Кбит/сек [Оригинал][/field]


Полное имя: D:\ЛИНО ВЕНТУРА\Зануда DVD-5\VIDEO_TS\VTS_02_1.VOB
Формат: MPEG-PS
Размер файла: 1024 Мбайт
Продолжительность: 19 м.
Общий поток: 7262 Кбит/сек

Видео
Идентификатор: 224 (0xE0)
Формат: MPEG Video
Версия формата: Version 2
Профиль формата: Main@Main
Параметр BVOP формата: Да
Параметр матрицы формата: По умолчанию
Параметры GOP формата: M=3, N=13
Продолжительность: 19 м.
Вид битрейта: Переменный
Битрейт: 6349 Кбит/сек
Номинальный битрейт: 8500 Кбит/сек
Ширина: 720 пикс.
Высота: 576 пикс.
Соотношение сторон: 2,35:1
Частота кадров: 25,000 кадр/сек
Стандарт вещания: PAL
Цветовое пространство: YUV
Подвыборка цветности: 4:2:0
Битовая глубина: 8 бит
Тип развёртки: Чересстрочная
Порядок развёртки: Верхнее поле первое
Метод сжатия: С потерями
Бит/(Пиксели*Кадры): 0.612
Размер потока: 895 Мбайт (87%)
Аудио #1
Идентификатор: 128 (0x80)
Формат: AC-3
Формат/Информация: Audio Coding 3
Расширение режима: CM (complete main)
Продолжительность: 19 м.
Вид битрейта: Постоянный
Битрейт: 160 Кбит/сек
Канал(ы): 2 канала(ов)
Расположение каналов: Front: L R
Частота: 48,0 КГц
Битовая глубина: 16 бит
Метод сжатия: С потерями
Размер потока: 22,6 Мбайт (2%)
Аудио #2
Идентификатор: 129 (0x81)
Формат: AC-3
Формат/Информация: Audio Coding 3
Расширение режима: CM (complete main)
Продолжительность: 19 м.
Вид битрейта: Постоянный
Битрейт: 160 Кбит/сек
Канал(ы): 2 канала(ов)
Расположение каналов: Front: L R
Частота: 48,0 КГц
Битовая глубина: 16 бит
Метод сжатия: С потерями
Размер потока: 22,6 Мбайт (2%)
Аудио #3
Идентификатор: 130 (0x82)
Формат: AC-3
Формат/Информация: Audio Coding 3
Расширение режима: CM (complete main)
Продолжительность: 19 м.
Вид битрейта: Постоянный
Битрейт: 448 Кбит/сек
Канал(ы): 6 канала(ов)
Расположение каналов: Front: L C R, Side: L R, LFE
Частота: 48,0 КГц
Битовая глубина: 16 бит
Метод сжатия: С потерями
Размер потока: 63,2 Мбайт (6%)
Текст #1
Идентификатор: 32 (0x20)
Формат: RLE
Формат/Информация: Run-length encoding
Задержка видео: 1 с. 680 мс.
Текст #2
Идентификатор: 33 (0x21)
Формат: RLE
Формат/Информация: Run-length encoding
Задержка видео: 1 с. 200 мс.
Меню






















Поделиться:




реклама партнёра


Вернуться к началу
 Профиль Отправить личное сообщение  
 
   Похожие торренты   Автор   Торрент   Размер 
В этой теме нет новых непрочитанных сообщений. Консьерж / Le concierge [комедия, 1973] SATRip, Dvo

salma3

47 | 3

693.16 МБ

В этой теме нет новых непрочитанных сообщений. Консьерж / Le Concierge [комедия, 1973] DVDRip, Dvo

salma3

12 | 2

1.48 ГБ

В этой теме нет новых непрочитанных сообщений. Дипломатический багаж / La Valise [комедия, приключения, 1973] DVDRip, Mvo

salma3

17 | 3

1.31 ГБ

В этой теме нет новых непрочитанных сообщений. Девочки из группы поддержки / The Cheerleaders [Комедия, 1973] DVDRip, Avo

salma3

63 | 2

1.37 ГБ

В этой теме нет новых непрочитанных сообщений. Дипломатический багаж / La Valise [комедия, приключения, 1973] BDRip 1080p, Avo

salma3

42 | 5

9.29 ГБ

В этой теме нет новых непрочитанных сообщений. Дипломатический багаж / La Valise [комедия, приключения, 1973] BDRip 720p, Avo

salma3

47 | 4

3.6 ГБ

В этой теме нет новых непрочитанных сообщений. Большая жратва / La grande bouffe [Комедия, драма, 1973] BDRip 720p, Mvo

salma3

1 | 10

12.18 ГБ


Начать новую тему Ответить на тему  [ 1 сообщение ] 




Для Мосгорсуда, Роскомнадзора и рекламодателей:: mosgorsud-torrent[собачка]yandex.ru