Торрент файл
скачать торрент магнет ссылка Добавлен: 08 янв 2012, 22:07
Размер: 4.17 ГБ
Сидеров: 2
Личеров: 5
Автор

СообщениеДобавлено: 08 янв 2012, 22:07 

Не в сети
Супермодератор
Аватара пользователя
Дата регистрации:
11 апр 2010, 18:10
Спасибо: 5963 / 7
Сообщения: 56762
Запах женщины / Profumo di donna

Перевод: Профессиональный (двухголосый)
Cубтитры: отсутствуют
Формат: DVD5, DVD Video, MPEG2, AC3
Страна: Италия
Режиссер: Дино Ризи
Жанр: Драма, комедия
Продолжительность: 01:38:55
Год выпуска: 1974
В ролях: Витторио Гассман, Алессандро Момо, Агостина Белли, Мойра Орфей, Франко Риччи, Елена Веронезе, Лоренцо Пьяни, Стефания Спуньини, Ториндо Бернарди, Мариса Волоннино
Описание: Слепой экс-капитан Фаусто в сопровождении выделенного ему солдата отправляется в путешествие «в свет». Он прекрасно ориентируется в пространстве. У него своя идеология сильной в любых обстоятельствах личности. И наконец Фаусто по-прежнему неотразим. Только запах женщины для него значит куда больше, чем для других соблазнителей…

Рейтинг на КиноПоиск:8.028[/field]
Рейтинг MPAA:
R[/field] Рейтинг на IMDB:7.8/10[/field][/field]

Видео: 720x480, ( NTSC 4:3), MPEG2 Video, 29,970 кадр/сек, ~ 8000 Кбит/сек,0.488 Бит/(Пиксели*Кадры)
Аудио #1:Русский, 48,0 КГц, AC3, 2 канала(ов), ~160 Кбит/сек [Перевод: Профессиональный (двухголосый, закадровый)]
Аудио #2:Русский, 48,0 КГц, AC3, 2 канала(ов), ~160 Кбит/сек [Авторский (Козлов)]
Аудио #3:Итальянский, 48,0 КГц, AC3, 2 канала(ов), ~192 Кбит/сек [Оригинал][/field]

Доп. информация:
Номинации на "Оскар":
"инофильм" и сценарий.
Премия "Сезар" за "инофильм".
Витторио Гассман удостоен приза на МКФ в Канне и итальянской премии "Silver Ribbon".


Полное имя: D:\Запах женщины DVD-5\VIDEO_TS\VTS_02_1.VOB
Формат: MPEG-PS
Размер файла: 1024 Мбайт
Продолжительность: 25 м.
Общий поток: 5681 Кбит/сек
Видео
Идентификатор: 224 (0xE0)
Формат: MPEG Video
Версия формата: Version 2
Профиль формата: Main@Main
Параметр BVOP формата: Да
Параметр матрицы формата: По умолчанию
Продолжительность: 25 м.
Вид битрейта: Переменный
Битрейт: 5056 Кбит/сек
Номинальный битрейт: 8000 Кбит/сек
Ширина: 720 пикс.
Высота: 480 пикс.
Соотношение сторон: 4:3
Частота кадров: 29,970 кадр/сек
Стандарт вещания: NTSC
Цветовое пространство: YUV
Подвыборка цветности: 4:2:0
Битовая глубина: 8 бит
Тип развёртки: Чересстрочная
Порядок развёртки: Верхнее поле первое
Метод сжатия: С потерями
Бит/(Пиксели*Кадры): 0.488
Размер потока: 911 Мбайт (89%)
Аудио #1
Идентификатор: 128 (0x80)
Формат: AC-3
Формат/Информация: Audio Coding 3
Расширение режима: CM (complete main)
Продолжительность: 25 м.
Вид битрейта: Постоянный
Битрейт: 160 Кбит/сек
Канал(ы): 2 канала(ов)
Расположение каналов: Front: L R
Частота: 48,0 КГц
Битовая глубина: 16 бит
Метод сжатия: С потерями
Размер потока: 28,8 Мбайт (3%)
Аудио #2
Идентификатор: 129 (0x81)
Формат: AC-3
Формат/Информация: Audio Coding 3
Расширение режима: CM (complete main)
Продолжительность: 25 м.
Вид битрейта: Постоянный
Битрейт: 160 Кбит/сек
Канал(ы): 2 канала(ов)
Расположение каналов: Front: L R
Частота: 48,0 КГц
Битовая глубина: 16 бит
Метод сжатия: С потерями
Размер потока: 28,8 Мбайт (3%)
Аудио #3
Идентификатор: 130 (0x82)
Формат: AC-3
Формат/Информация: Audio Coding 3
Расширение режима: CM (complete main)
Продолжительность: 25 м.
Вид битрейта: Постоянный
Битрейт: 192 Кбит/сек
Канал(ы): 2 канала(ов)
Расположение каналов: Front: L R
Частота: 48,0 КГц
Битовая глубина: 16 бит
Метод сжатия: С потерями
Размер потока: 34,6 Мбайт (3%)
Меню


















Поделиться:




реклама партнёра


Вернуться к началу
 Профиль Отправить личное сообщение  
 
   Похожие торренты   Автор   Торрент   Размер 
В этой теме нет новых непрочитанных сообщений. Раздевая глазами (Вижу обнаженной) / Vedo nudo (Дино Ризи / Dino Risi) [1969г., Италия, комедия, DVDRip] MVO

Alfredovich

0 | 2

1.46 ГБ

В этой теме нет новых непрочитанных сообщений. Пожирательница мужчин / La Donna Lupo / The man-eater [драма, мелодрама, 1999] DVD5, Mvo+Sub

salma3

18 | 2

4.19 ГБ

В этой теме нет новых непрочитанных сообщений. Мужчины, женщины и дети / Men, Women & Children (Джейсон Рейтмен) [драма, комедия, 2014] DVD5, Dub+Sub [Лицензия]

Dracon

59 | 21

4.36 ГБ

В этой теме нет новых непрочитанных сообщений. Запах успеха / The Smell of Success [Комедия, 2009] BDRip 1080р, Mvo

salma3

11 | 11

7.09 ГБ

В этой теме нет новых непрочитанных сообщений. Запах мандарина / L'odeur de la mandarine [Драма, Мелодрама, 2015] BDRip, Avo

salma3

0 | 0

1.47 ГБ

В этой теме нет новых непрочитанных сообщений. Вот так подружка / Una Donna per Amica (Джованни Веронези) [комедия, 2014] HDRip, mvo [Звук с TS]

Dracon

1613 | 101

1.36 ГБ

В этой теме нет новых непрочитанных сообщений. Голый пистолет 2 1/2: Запах страха / The Naked Gun 2 1/2: The Smell of Fear [комедия, криминал, 1991] BDRemux 1080p, Mvo+Dvo+Avo+Sub

salma3

12 | 46

39.41 ГБ


Начать новую тему Ответить на тему  [ 1 сообщение ] 




Для Мосгорсуда, Роскомнадзора и рекламодателей:: mosgorsud-torrent[собачка]yandex.ru