Торрент файл
скачать торрент магнет ссылка Добавлен: 08 янв 2012, 22:06
Размер: 3.99 ГБ
Сидеров: 4
Личеров: 4
Автор

СообщениеДобавлено: 08 янв 2012, 22:06 

Не в сети
Супермодератор
Аватара пользователя
Дата регистрации:
11 апр 2010, 18:10
Спасибо: 5801 / 7
Сообщения: 56779
Затерянный мир / The Lost World

Перевод: Профессиональный (многоголосый, закадровый)
Cубтитры: отсутствуют
Формат: DVD5, DVD Video, MPEG2, AC3
Страна: США, Канада
Режиссер: Тимоти Бонд
Жанр: Фантастика, фэнтези, приключения
Продолжительность: 01:34:41
Год выпуска: 1992

В ролях: Джон Рис-Дэвис, Дэвид Уорнер, Эрик МакКормак, Натания Стэнфорд, Даррен Питер Мерсер, Тамара Горски, Сала Каме, Фиделис Чеза, John Chinosiyani, Инносент Чода

Описание: Экстравагантный профессор Челленджер и падкий на сенсации репортер Эдвард Мелоун загораются идеей организовать экспедицию в Африку. Ее цель — подтвердить или опровергнуть утверждения Челленджера о том, что в самом сердце черного континента еще сохранились гигантские доисторические животные. К ним присоединяется профессор Саммерли, убежденный в том, что заявления коллеги безосновательны; Дженни Нильсон, состоятельная и привлекательная дама-фотограф; 13-летний безбилетник Джим; и чернокожая красавица Малу, взявшаяся сопроводить отважных исследователей через таинственные джунгли. К изумлению путешественников, их самые смелые догадки подтверждаются: они обнаруживают землю, на которой обитают динозавры, птеродактили и первобытные люди.Однако экспедиция, начинавшаяся как курьез, теперь оборачивается нешуточной борьбой за выживание. Наши герои должны оставить в прошлом свои разногласия и распри, чтобы благополучно покинуть этот удивительный край, названный ими Затерянный Мир…

Рейтинг на КиноПоиск:6.643[/field]
Рейтинг на IMDB:5.0/10[/field][/field]

Видео: 720x576 ( PAL 4:3), MPEG2 Video, 25,000 кадр/сек, ~ 8000 Кбит/сек
Аудио: Русский, 48,0 КГц, AC3, 2 канала(ов), ~192 Кбит/сек [Профессиональный (многоголосый, закадровый)]

Доп. информация: Релиз на DVD 18 февраля 2009, «Кармен Видео». Фильм скачан в сети DC++.


Полное имя: H:\Фильмы DVD\ЗАТЕРЯННЫЙ МИР DVD-5\VIDEO_TS\VTS_01_1.VOB
Формат: MPEG-PS
Размер файла: 1024 Мбайт
Продолжительность: 23 м.
Общий поток: 5968 Кбит/сек
Видео
Идентификатор: 224 (0xE0)
Формат: MPEG Video
Версия формата: Version 2
Профиль формата: Main@Main
Параметр BVOP формата: Да
Параметр матрицы формата: По умолчанию
Продолжительность: 23 м.
Вид битрейта: Переменный
Битрейт: 5657 Кбит/сек
Номинальный битрейт: 8000 Кбит/сек
Ширина: 720 пикс.
Высота: 576 пикс.
Соотношение сторон: 4:3
Частота кадров: 25,000 кадр/сек
Стандарт вещания: PAL
Цветовое пространство: YUV
Подвыборка цветности: 4:2:0
Битовая глубина: 8 бит
Тип развёртки: Чересстрочная
Порядок развёртки: Верхнее поле первое
Метод сжатия: С потерями
Бит/(Пиксели*Кадры): 0.546
Размер потока: 971 Мбайт (95%)
Аудио
Идентификатор: 128 (0x80)
Формат: AC-3
Формат/Информация: Audio Coding 3
Расширение режима: CM (complete main)
Продолжительность: 23 м.
Вид битрейта: Постоянный
Битрейт: 192 Кбит/сек
Канал(ы): 2 канала(ов)
Расположение каналов: Front: L R
Частота: 48,0 КГц
Битовая глубина: 16 бит
Метод сжатия: С потерями
Задержка видео: -80 мс.
Размер потока: 32,9 Мбайт (3%)
Меню


















Поделиться:




реклама партнёра


Вернуться к началу
 Профиль Отправить личное сообщение  
 
   Похожие торренты   Автор   Торрент   Размер 
В этой теме нет новых непрочитанных сообщений. Затерянный мир / The Lost World [фантастика, фэнтези, приключения, 1992] DVDRip-AVC, Mvo+Sub

salma3

14 | 3

1.46 ГБ

В этой теме нет новых непрочитанных сообщений. Возвращение в Затерянный мир / Return to the Lost World [фантастика, приключения, 1992] DVDRip-AVC, Mvo+Sub

salma3

17 | 2

1.46 ГБ

В этой теме нет новых непрочитанных сообщений. Затерянный мир / The Lost World / 1-3 сезоны 1-67 серии из 67 [фантастика, фэнтези, боевик, приключения, 1999–2002] DVDRip, Dub

salma3

18 | 15

25.92 ГБ

В этой теме нет новых непрочитанных сообщений. Затерянный Мир / The Lost World [фантастика, приключения, 1998] DVDRip-AVC, Mvo+Sub

salma3

30 | 5

1.45 ГБ

В этой теме нет новых непрочитанных сообщений. Затерянный Мир / The Lost World [фантастика, приключения, 1998] DVDRip, Mvo+Sub

salma3

11 | 6

1.46 ГБ

В этой теме нет новых непрочитанных сообщений. Тарзан и затерянный город / Tarzan and the Lost City [фэнтези, боевик, приключения, семейный, 1998] DVDRip, Avo

salma3

46 | 7

1.46 ГБ

В этой теме нет новых непрочитанных сообщений. Затерянный остров / Lost Island [приключения, семейный, 1994] VHSRip, Avo

salma3

4 | 5

1.42 ГБ


Начать новую тему Ответить на тему  [ 1 сообщение ] 




Для Мосгорсуда, Роскомнадзора и рекламодателей:: mosgorsud-torrent[собачка]yandex.ru