Торрент файл
скачать торрент магнет ссылка Добавлен: 08 янв 2012, 22:06
Размер: 3.46 ГБ
Сидеров: 3
Личеров: 5
Автор

СообщениеДобавлено: 08 янв 2012, 22:06 

Не в сети
Супермодератор
Аватара пользователя
Дата регистрации:
11 апр 2010, 18:10
Спасибо: 5799 / 7
Сообщения: 56779
Возвращение в Затерянный Мир / Return to the Lost World

Перевод: Профессиональный (многоголосый, закадровый)
Cубтитры:Русские
Формат: DVD5, DVD Video, MPEG2, AC3
Страна: Канада
Режиссер: Тимоти Бонд
Жанр: Фантастика, приключения
Продолжительность: 01:29:47
Год выпуска: 1992

В ролях: Джон Рис-Дэвис, Дэвид Уорнер, Эрик МакКормак, Натания Стэнфорд, Даррен Питер Мерсер, Тамара Горски, Сала Каме, Фиделис Чеза, John Chinosiyani, Инносент Чода

Описание: В Африку за нефтью и прочими сокровищами устремляются европейские авантюристы всех мастей. Среди них — бельгиец Хэйманс с группой головорезов. Дорогу к месторождениям он прокладывает себе, вырубая растительность, истребляя огнем и взрывчаткой уникальных животных, порабощая и убивая местных жителей. Под девизом «Никаких больше богов! — только Смерть» Хейманс сбрасывает с утеса вождя местного племени и добивает динозавра, выжившего после динамитного взрыва. В отчаянии красавица-абориген Малу приходит к Кейт Криншоу, которая телеграфирует лондонскому репортеру Эдварду Мелоуну и фотографу Дженни Нильсон о том, что из-за добычи нефти их любимые реликтовые твари находятся в опасности. Журналисты бьют тревогу, вновь находящиеся по разные стороны теоретических баррикад (на сей раз — по вопросу происхождения реки Ориноко) профессоры Челленджер и Саммерли присоединяются к ним, и все вместе они спешат на помощь Затерянному Миру…

Рейтинг на КиноПоиск:6.350[/field]
Рейтинг на IMDB:4.7/10[/field][/field]

Видео: 720x576, ( PAL 4:3), MPEG2 Video, 25,000 кадр/сек, ~ 7000 Кбит/сек
Аудио #1:Русский, 48,0 КГц, AC3, 2 канала(ов), ~192 Кбит/сек [Профессиональный (многоголосый, закадровый)]
Аудио #2:Русский, 48,0 КГц, AC3, 2 канала(ов), ~224 Кбит/сек [Оригинал][/field]

Доп. информация: Релиз на DVD 18 февраля 2009, «Кармен Видео»


Полное имя: H:\Фильмы DVD\Возвращение в затерянный мир DVD-5\VIDEO_TS\VTS_05_1.VOB
Формат: MPEG-PS
Размер файла: 1024 Мбайт
Продолжительность: 27 м.
Общий поток: 5210 Кбит/сек
Видео
Идентификатор: 224 (0xE0)
Формат: MPEG Video
Версия формата: Version 2
Профиль формата: Main@Main
Параметр BVOP формата: Да
Параметр матрицы формата: По умолчанию
Параметры GOP формата: M=3, N=12
Продолжительность: 27 м.
Вид битрейта: Переменный
Битрейт: 4690 Кбит/сек
Номинальный битрейт: 7000 Кбит/сек
Ширина: 720 пикс.
Высота: 576 пикс.
Соотношение сторон: 4:3
Частота кадров: 25,000 кадр/сек
Стандарт вещания: PAL
Цветовое пространство: YUV
Подвыборка цветности: 4:2:0
Битовая глубина: 8 бит
Тип развёртки: Чересстрочная
Порядок развёртки: Верхнее поле первое
Метод сжатия: С потерями
Бит/(Пиксели*Кадры): 0.452
Размер потока: 922 Мбайт (90%)
Аудио #1
Идентификатор: 128 (0x80)
Формат: AC-3
Формат/Информация: Audio Coding 3
Расширение режима: CM (complete main)
Продолжительность: 27 м.
Вид битрейта: Постоянный
Битрейт: 192 Кбит/сек
Канал(ы): 2 канала(ов)
Расположение каналов: Front: L R
Частота: 48,0 КГц
Битовая глубина: 16 бит
Метод сжатия: С потерями
Задержка видео: -80 мс.
Размер потока: 37,7 Мбайт (4%)
Аудио #2
Идентификатор: 129 (0x81)
Формат: AC-3
Формат/Информация: Audio Coding 3
Расширение режима: CM (complete main)
Продолжительность: 27 м.
Вид битрейта: Постоянный
Битрейт: 224 Кбит/сек
Канал(ы): 2 канала(ов)
Расположение каналов: Front: L R
Частота: 48,0 КГц
Битовая глубина: 16 бит
Метод сжатия: С потерями
Задержка видео: -80 мс.
Размер потока: 44,0 Мбайт (4%)
Текст
Идентификатор: 32 (0x20)
Формат: RLE
Формат/Информация: Run-length encoding
Продолжительность: 27 м.
Задержка видео: 2 с. 560 мс.
Меню


























Поделиться:




реклама партнёра


Вернуться к началу
 Профиль Отправить личное сообщение  
 
   Похожие торренты   Автор   Торрент   Размер 
В этой теме нет новых непрочитанных сообщений. Возвращение в Затерянный мир / Return to the Lost World [фантастика, приключения, 1992] DVDRip-AVC, Mvo+Sub

salma3

17 | 2

1.46 ГБ

В этой теме нет новых непрочитанных сообщений. Затерянный мир / The Lost World [фантастика, фэнтези, приключения, 1992] DVDRip-AVC, Mvo+Sub

salma3

14 | 3

1.46 ГБ

В этой теме нет новых непрочитанных сообщений. Затерянный Мир / The Lost World [фантастика, приключения, 1998] DVDRip-AVC, Mvo+Sub

salma3

30 | 5

1.45 ГБ

В этой теме нет новых непрочитанных сообщений. Затерянный Мир / The Lost World [фантастика, приключения, 1998] DVDRip, Mvo+Sub

salma3

11 | 6

1.46 ГБ

В этой теме нет новых непрочитанных сообщений. Затерянный мир / The Lost World / 1-3 сезоны 1-67 серии из 67 [фантастика, фэнтези, боевик, приключения, 1999–2002] DVDRip, Dub

salma3

18 | 15

25.92 ГБ

В этой теме нет новых непрочитанных сообщений. Затерянный остров / Lost Island [приключения, семейный, 1994] VHSRip, Avo

salma3

4 | 5

1.42 ГБ

В этой теме нет новых непрочитанных сообщений. Тарзан и затерянный город / Tarzan and the Lost City [фэнтези, боевик, приключения, семейный, 1998] DVDRip, Avo

salma3

46 | 7

1.46 ГБ


Начать новую тему Ответить на тему  [ 1 сообщение ] 




Для Мосгорсуда, Роскомнадзора и рекламодателей:: mosgorsud-torrent[собачка]yandex.ru