Торрент файл
скачать торрент магнет ссылка Добавлен: 08 янв 2012, 22:06
Размер: 4.33 ГБ
Сидеров: 0
Личеров: 5
Автор

СообщениеДобавлено: 08 янв 2012, 22:06 

Не в сети
Супермодератор
Аватара пользователя
Дата регистрации:
11 апр 2010, 18:10
Спасибо: 5802 / 7
Сообщения: 56779
Злоключения китайца в Китае / Les tribulations d'un Chinois en Chine

Перевод: Профессиональный (многоголосый, закадровый)
Cубтитры: отсутствуют
Формат: DVD5, DVD Video, MPEG2, AC3
Страна: Франция, Италия
Режиссер: Филипп де Брока
Жанр: Комедия, приключения
Продолжительность: 01:44:22
Год выпуска: 1965

В ролях: Жан-Поль Бельмондо, Урсула Андресс, Мария Паком, Валери Лагранж, Валерий Инкижинов, Джо Саид, Марио Давид, Поль Пребуа, Джесс Хан, Жан Рошфор

Описание: Изрядно заскучавшему от жизни молодому миллионеру никак не удается наложить на себя руки, и тогда его друг берется помочь горе-самоубийце, наняв для этого настоящих киллеров и предварительно сообщив, что жить тому остается ровно месяц. Но спустя некоторое время Артюр встречает в кабаке танцовщицу Александрин Пинардель и влюбляется в нее. И ему сразу очень захотелось жить…

Рейтинг на КиноПоиск:6.447[/field]
Рейтинг на IMDB:6.4/10[/field][/field]

Видео: 720x576, ( PAL 4:3), MPEG2 Video, 25,000 кадр/сек, ~ 9 800 Кбит/сек, 0.546 Бит/(Пиксели*Кадры)
Аудио #1:Русский, 48,0 КГц, AC3, 2 канала(ов), ~224 Кбит/сек [Профессиональный (многоголосый, закадровый)]
Аудио #2:Французский, 48,0 КГц, AC3, 2 канала(ов), ~224 Кбит/сек [Оригинал][/field]

Доп. информация: По одноименному роману Жюля Верна.


Полное имя: D:\ЖАН ПОЛЬ БЕЛЬМОНДО\Злоключения китайца в Китае DVD-5\VIDEO_TS\VTS_01_3.VOB
Формат: MPEG-PS
Размер файла: 1024 Мбайт
Продолжительность: 22 м.
Общий поток: 6233 Кбит/сек
Видео
Идентификатор: 224 (0xE0)
Формат: MPEG Video
Версия формата: Version 2
Профиль формата: Main@Main
Параметр BVOP формата: Да
Параметр матрицы формата: По умолчанию
Параметры GOP формата: M=3, N=12
Продолжительность: 22 м.
Вид битрейта: Переменный
Битрейт: 5661 Кбит/сек
Номинальный битрейт: 9800 Кбит/сек
Ширина: 720 пикс.
Высота: 576 пикс.
Соотношение сторон: 4:3
Частота кадров: 25,000 кадр/сек
Стандарт вещания: PAL
Цветовое пространство: YUV
Подвыборка цветности: 4:2:0
Битовая глубина: 8 бит
Тип развёртки: Чересстрочная
Порядок развёртки: Верхнее поле первое
Метод сжатия: С потерями
Бит/(Пиксели*Кадры): 0.546
Размер потока: 930 Мбайт (91%)
Аудио #1
Идентификатор: 128 (0x80)
Формат: AC-3
Формат/Информация: Audio Coding 3
Расширение режима: CM (complete main)
Продолжительность: 22 м.
Вид битрейта: Постоянный
Битрейт: 224 Кбит/сек
Канал(ы): 2 канала(ов)
Расположение каналов: Front: L R
Частота: 48,0 КГц
Битовая глубина: 16 бит
Метод сжатия: С потерями
Задержка видео: -528 мс.
Размер потока: 36,8 Мбайт (4%)
Аудио #2
Идентификатор: 129 (0x81)
Формат: AC-3
Формат/Информация: Audio Coding 3
Расширение режима: CM (complete main)
Продолжительность: 22 м.
Вид битрейта: Постоянный
Битрейт: 224 Кбит/сек
Канал(ы): 2 канала(ов)
Расположение каналов: Front: L R
Частота: 48,0 КГц
Битовая глубина: 16 бит
Метод сжатия: С потерями
Задержка видео: -528 мс.
Размер потока: 36,8 Мбайт (4%)
Меню






















Поделиться:




реклама партнёра


Вернуться к началу
 Профиль Отправить личное сообщение  
 
   Похожие торренты   Автор   Торрент   Размер 
В этой теме нет новых непрочитанных сообщений. Большой переполох в маленьком Китае / Big Trouble in Little China [фэнтези, боевик, комедия, приключения, 1986] BDRip. Mvo

salma3

20 | 2

1.46 ГБ

В этой теме нет новых непрочитанных сообщений. Большой переполох в маленьком Китае / Big Trouble In Little China [боевик, фэнтези, комедия, приключения, 1986] HDRip, Mvo [КПК]

salma3

23 | 8

863.91 МБ

В этой теме нет новых непрочитанных сообщений. Полное превращение (Филипп Коршунов) [комедия, фантастика, 2015] DVD5 [Лицензия]

Dracon

788 | 188

3.94 ГБ

В этой теме нет новых непрочитанных сообщений. Злоключения Альфреда / Les Malheurs d'Alfred [комедия, 1972] BDRemux, 2Mvo+Sub

salma3

0 | 5

21.5 ГБ

В этой теме нет новых непрочитанных сообщений. Китайская головоломка / Casse-tete chinois [драма, мелодрама, комедия, 2013] HDRip, Dub+Sub [лицензия]

Dracon

400 | 14

2.19 ГБ

В этой теме нет новых непрочитанных сообщений. Злоключения Альфреда / Les Malheurs d'Alfred [Комедия, 1972] BDRip 1080p, 2Mvo

salma3

22 | 6

7.81 ГБ

В этой теме нет новых непрочитанных сообщений. Китайская головоломка / Casse-tete chinois [драма, мелодрама, комедия, 2013] BDRip 1080p, Dub+Sub [лицензия]

Dracon

148 | 8

8.26 ГБ


Начать новую тему Ответить на тему  [ 1 сообщение ] 




Для Мосгорсуда, Роскомнадзора и рекламодателей:: mosgorsud-torrent[собачка]yandex.ru