Торрент файл
скачать торрент магнет ссылка Добавлен: 08 янв 2012, 22:06
Размер: 3.56 ГБ
Сидеров: 0
Личеров: 5
Автор

СообщениеДобавлено: 08 янв 2012, 22:06 

Не в сети
Супермодератор
Аватара пользователя
Дата регистрации:
11 апр 2010, 18:10
Спасибо: 5801 / 7
Сообщения: 56779
Беги за мной, чтобы я тебя поймала / Cours apres moi que je t'attrape

Перевод: Профессиональный (полное дублирование)
Cубтитры: отсутствуют
Формат: DVD5, DVD Video, MPEG2, AC3
Страна: Франция
Режиссер: Робер Пуре
Жанр: Комедия
Продолжительность: 01:24:57
Год выпуска: 1976

В ролях: Анни Жирардо, Жан-Пьер Марьель, Марилу Толо, Женевьев Фонтанель, Даниэль Прево, Сильвен Ружери, Кристин Лоран, Жерар Эрнандес, Катя Ченко, Francis Joffo

Описание: Жаклин Брашeр работает в салоне «Шикарная собака» — стрижет кудрявых псин богатых бездельниц. Говорит она по-парикмахерски бойко, но о себе — впервые за долгое время: у Жаклин нет мужа, нет мужчины, родных тоже нет. Ее собеседник — несколько помятый мужчина, который всю дорогу теребит газету — ту же самую, что и Жаклин. В этом кафе они встречаются по объявлениям, которые оба дали в рубрику «Знакомства». Мужчине чуть более неловко — не оттого даже, что уже на первое свидание пришел со шлейфом истории отца-одиночки, а оттого, что род занятий его больно уж малопривлекательный: он служит налоговым инспектором.

Роли дублировали: Нина Меньшикова Владимир Дружников Серафима Холина Олег Голубицкий Владимир Ферапонтов

Рейтинг на КиноПоиск:7.625[/field]
Рейтинг на IMDB:5.1/10[/field][/field]

Видео: 720x576, ( PAL 16:9), MPEG2 Video, 25,000 кадр/сек, ~ 8264 Кбит/сек, 0.536 Бит/(Пиксели*Кадры)
Аудио #1:Русский, 48,0 КГц, AC3, 2 канала(ов), ~192 Кбит/сек [Профессиональный (полное дублирование)]
Аудио #2:Французский, 48,0 КГц, AC3, 2 канала(ов), ~192 Кбит/сек [Оригинал][/field]

Доп. информация:
В советском кинопрокате фильм шел под названием «Знакомство по брачному объявлению».


Полное имя: D:\Знакомство по брачному объявлению DVD-5\VIDEO_TS\VTS_02_1.VOB
Формат: MPEG-PS
Размер файла: 1024 Мбайт
Продолжительность: 23 м.
Общий поток: 6064 Кбит/сек
Видео
Идентификатор: 224 (0xE0)
Формат: MPEG Video
Версия формата: Version 2
Профиль формата: Main@Main
Параметр BVOP формата: Да
Параметр матрицы формата: По умолчанию
Продолжительность: 23 м.
Вид битрейта: Переменный
Битрейт: 5560 Кбит/сек
Номинальный битрейт: 8264 Кбит/сек
Ширина: 720 пикс.
Высота: 576 пикс.
Соотношение сторон: 16:9
Частота кадров: 25,000 кадр/сек
Стандарт вещания: PAL
Цветовое пространство: YUV
Подвыборка цветности: 4:2:0
Битовая глубина: 8 бит
Тип развёртки: Чересстрочная
Порядок развёртки: Верхнее поле первое
Метод сжатия: С потерями
Бит/(Пиксели*Кадры): 0.536
Размер потока: 939 Мбайт (92%)
Аудио #1
Идентификатор: 128 (0x80)
Формат: AC-3
Формат/Информация: Audio Coding 3
Расширение режима: CM (complete main)
Продолжительность: 23 м.
Вид битрейта: Постоянный
Битрейт: 192 Кбит/сек
Канал(ы): 2 канала(ов)
Расположение каналов: Front: L R
Частота: 48,0 КГц
Битовая глубина: 16 бит
Метод сжатия: С потерями
Размер потока: 32,4 Мбайт (3%)
Аудио #2
Идентификатор: 129 (0x81)
Формат: AC-3
Формат/Информация: Audio Coding 3
Расширение режима: CM (complete main)
Продолжительность: 23 м.
Вид битрейта: Постоянный
Битрейт: 192 Кбит/сек
Канал(ы): 2 канала(ов)
Расположение каналов: Front: L R
Частота: 48,0 КГц
Битовая глубина: 16 бит
Метод сжатия: С потерями
Размер потока: 32,4 Мбайт (3%)
Меню






















Поделиться:




реклама партнёра


Вернуться к началу
 Профиль Отправить личное сообщение  
 
   Похожие торренты   Автор   Торрент   Размер 
В этой теме нет новых непрочитанных сообщений. Беги, сyка, беги! / Run! Bitch Run! [ужасы, триллер, 2009] DVDRip, avo

Kochesov

39 | 4

742.44 МБ

В этой теме нет новых непрочитанных сообщений. Ледниковый период: Столкновение неизбежно / Ice Age: Collision Cours [мультфильм, фантастика, комедия, приключения, семейный, 2016] BDRip 1080p, Dub [Лицензия]

salma3

86 | 83

7.79 ГБ

В этой теме нет новых непрочитанных сообщений. Беги, мальчик, беги / Lauf Junge lauf [боевик, драма, военный, 2013] HDTV 1080p, Mvo

salma3

62 | 9

3.88 ГБ

В этой теме нет новых непрочитанных сообщений. Беги, мальчик, беги / Lauf Junge lauf [боевик, драма, военный, 2013] HDTVRip-AVC, Mvo

salma3

95 | 5

1.37 ГБ

В этой теме нет новых непрочитанных сообщений. Беги, мальчик, беги  / Lauf Junge lauf [драма, военный, 2013] DVDRip, Mvo

Dracon

95 | 2

1.46 ГБ

В этой теме нет новых непрочитанных сообщений. Жизнь после него / Après lui [Драма, 2007] DVDRip, Mvo

salma3

17 | 2

1.37 ГБ

В этой теме нет новых непрочитанных сообщений. Хватай и беги / Touch and Go [драма, мелодрама, комедия, 1986] DVDRip, Avo

salma3

31 | 34

1.37 ГБ


Начать новую тему Ответить на тему  [ 1 сообщение ] 




Для Мосгорсуда, Роскомнадзора и рекламодателей:: mosgorsud-torrent[собачка]yandex.ru