Торрент файл
скачать торрент магнет ссылка Добавлен: 08 янв 2012, 22:05
Размер: 4.13 ГБ
Сидеров: 0
Личеров: 11
Автор

СообщениеДобавлено: 08 янв 2012, 22:05 

Не в сети
Супермодератор
Аватара пользователя
Дата регистрации:
11 апр 2010, 18:10
Спасибо: 5962 / 7
Сообщения: 56765
Битва за остров сокровищ / Haakon Haakonsen

Перевод: Профессиональный (многоголосый, закадровый)
Cубтитры:Английские
Формат: DVD5, DVD Video, MPEG2, AC3
Страна: США, Швеция, Норвегия
Режиссер: Нильс Гауп
Жанр: Приключения, семейный
Продолжительность: 01:33:03
Год выпуска: 1990

В ролях: Стиан Сместад, Гэбриел Бирн, Луиза Милвуд-Хэйг, Тронд Петер, Штамсе Мюнх, Бьорн Сундквист, Ева фон Ханно, Кьелль Стормоен, Карл Сундбю, Кнут Валле, Харольд Бренна

Описание: 1850 год. Мог ли подумать юнга Хаакон Хааконсен, что это рутинное плавание обернется для него великим приключением и настоящим испытанием на мужество, выносливость и смекалку? Еще в начале похода юноша начал догадываться, что на борту корабля затевается что-то недоброе.
Опасения подтвердились, когда лейтенант Меррик, оказавшийся самым настоящим пиратом, поднял мятеж и захватил судно. Морская стихия — налетевший шторм — уносит Хаакона от банды корсаров и выбрасывает его на уединенный остров. Но именно на этом клочке суши негодяи прячут награбленное. А значит, героя ждет новая встреча с пиратами, которые не раз пожалеют, что связались со смелым и хитроумным юнгой!


Рейтинг на КиноПоиск:6.265[/field]
Рейтинг MPAA:PG[/field]
Рейтинг на IMDB:6.4/10[/field][/field]

Видео: 720x480, (NTSC 4:3), MPEG2, 23,976 кадр/сек, ~ 5928Кбит/сек, 0.715 Бит/(Пиксели*Кадры)
Аудио #1:Русский, 48,0 КГц, AC3, 2 канала(ов), ~192 Кбит/сек [Профессиональный (многоголосый, закадровый)]
Аудио #2:Английский, 48,0 КГц, AC3, 2 канала(ов), ~192 Кбит/сек [Оригинал][/field]

Доп. информация: Экранизация оригинального романа О. В. Фальк-Иттера


Полное имя: I:\Фильмы DVD\Ихние\Битва за остров сокровищ DVD-5\VIDEO_TS\VTS_01_1.VOB
Формат: MPEG-PS
Размер файла: 1024 Мбайт
Продолжительность: 22 м.
Общий поток: 6441 Кбит/сек
Видео
Идентификатор: 224 (0xE0)
Формат: MPEG Video
Версия формата: Version 2
Профиль формата: Main@Main
Параметр BVOP формата: Да
Параметр матрицы формата: По умолчанию
Продолжительность: 22 м.
Вид битрейта: Переменный
Битрейт: 5928 Кбит/сек
Ширина: 720 пикс.
Высота: 480 пикс.
Соотношение сторон: 4:3
Частота кадров: 23,976 кадр/сек
Стандарт вещания: NTSC
Цветовое пространство: YUV
Подвыборка цветности: 4:2:0
Битовая глубина: 8 бит
Тип развёртки: Прогрессивная
Порядок развёртки: 2:3 Pulldown
Метод сжатия: С потерями
Бит/(Пиксели*Кадры): 0.715
Размер потока: 943 Мбайт (92%)
Аудио #1
Идентификатор: 128 (0x80)
Формат: AC-3
Формат/Информация: Audio Coding 3
Расширение режима: CM (complete main)
Продолжительность: 22 м.
Вид битрейта: Постоянный
Битрейт: 192 Кбит/сек
Канал(ы): 2 канала(ов)
Расположение каналов: Front: L R
Частота: 48,0 КГц
Битовая глубина: 16 бит
Метод сжатия: С потерями
Размер потока: 30,5 Мбайт (3%)
Аудио #2
Идентификатор: 129 (0x81)
Формат: AC-3
Формат/Информация: Audio Coding 3
Расширение режима: CM (complete main)
Продолжительность: 22 м.
Вид битрейта: Постоянный
Битрейт: 192 Кбит/сек
Канал(ы): 2 канала(ов)
Расположение каналов: Front: L R
Частота: 48,0 КГц
Битовая глубина: 16 бит
Метод сжатия: С потерями
Размер потока: 30,5 Мбайт (3%)
Текст #1
Идентификатор: 32 (0x20)
Формат: RLE
Формат/Информация: Run-length encoding
Продолжительность: 22 м.
Текст #2
Идентификатор: 224 (0xE0)-DVD-2
Формат: EIA-608
Режим смешивания: DVD-Video
Режим смешивания, доп. информаци : Muxed in Video #1
Размер потока: 0,00 байт (0%)
Меню






















Поделиться:




реклама партнёра


Вернуться к началу
 Профиль Отправить личное сообщение  
 
   Похожие торренты   Автор   Торрент   Размер 
В этой теме нет новых непрочитанных сообщений. Стеклянные марионетки / Glassdukkene (Нильс Гауп) [Детектив, Триллер, 2014] WEBRip, avo

Dracon

1 | 0

1.37 ГБ

В этой теме нет новых непрочитанных сообщений. Затерянный остров / Lost Island [приключения, семейный, 1994] VHSRip, Avo

salma3

3 | 6

1.42 ГБ

В этой теме нет новых непрочитанных сообщений. Остров динозавров / Dinosaur Island (Матт Друммонд) [Детский, фантастика, приключения, семейный, 2014] HDRip, avo

Dracon

1071 | 48

1.37 ГБ

В этой теме нет новых непрочитанных сообщений. Остров динозавров / Dinosaur Island (Матт Друммонд) [Детский, фантастика, приключения, семейный, 2014] BDRemux 1080p, avo

Dracon

0 | 0

16.25 ГБ

В этой теме нет новых непрочитанных сообщений. Битва за Скайарк / Battle for Skyark [фантастика, боевик, приключения, семейный, 2015] BDRip 720p, Avo

salma3

419 | 27

4.76 ГБ

В этой теме нет новых непрочитанных сообщений. Битва за Скайарк / Battle for Skyark (Саймон Хунг) [Фантастика, Боевик, Приключения, Семейный, 2015] HDRip, avo

Dracon

3 | 0

1.37 ГБ

В этой теме нет новых непрочитанных сообщений. Вторжение. Битва за рай / Tomorrow, When the War Began [s01] [боевик, драма, приключения, семейный, военный, 2016] PDTVRip, Mvo [Jaskier]

salma3

158 | 21

3.52 ГБ


Начать новую тему Ответить на тему  [ 1 сообщение ] 




Для Мосгорсуда, Роскомнадзора и рекламодателей:: mosgorsud-torrent[собачка]yandex.ru