Торрент файл
скачать торрент магнет ссылка Добавлен: 08 янв 2012, 22:05
Размер: 4.3 ГБ
Сидеров: 0
Личеров: 4
Автор

СообщениеДобавлено: 08 янв 2012, 22:05 

Не в сети
Супермодератор
Аватара пользователя
Дата регистрации:
11 апр 2010, 18:10
Спасибо: 5801 / 7
Сообщения: 56779
Детсадовский полицейский / Kindergarten Cop

Перевод: Авторский (А.Михалёв)
Субтитры:Английские, французские
Формат: DVD5, DVD Video, MPEG2, AC3
Страна: США
Режиссер: Айвен Райтман
Жанр: Боевик, триллер, комедия, криминал
Продолжительность: 01:51:05
Год выпуска: 1990

В ролях: Арнольд Шварценеггер, Пенелопа Энн Миллер, Памела Рид, Линда Хант, Ричард Тайсон, Кэррол Бейкер, Кэти Мориарти, Джозеф Казинс, Кристиан Казинс, Парк Овералл

Описание: Детектив Джон Кимбл, ветеран «грязных улиц» Лос-Анджелеса, готов справиться с кем угодно. Но для того чтобы заманить в ловушку хитрого преступника, ему приходится устроиться воспитателем в детский сад.И вот когда он завоевывает уважение малышей и любовь прекрасной учительницы, ему предстоит схватка с преступником.

Рейтинг на КиноПоиск:6.849[/field]
РейтингMPAA:PG-13[/field]
Рейтинг на IMDB:5.8/10[/field][/field]

Видео: 720x480, (4:3), MPEG2, 23,976 кадр/сек, ~ 9 800 Кбит/сек, 0.645 Бит/(Пиксели*Кадры)
Аудио #1:Русский, 48,0 КГц, AC3, 2 канала(ов), ~192 Кбит/сек [Авторский (одноголосый)]А.Михалёв
Аудио #2:Английский, 48,0 КГц, AC3, 2 канала(ов), ~192 Кбит/сек [Оригинал]
Аудио #2:Французский, 48,0 КГц, AC3, 2 канала(ов), ~192 Кбит/сек[/field]

Доп. информация: Релиз на DVD21 октября 2008, «Мьюзик-Трейд»


Полное имя: I:\Фильмы DVD\Ихние\Детсадовский полицейский DVD-5\VIDEO_TS\VTS_01_1.VOB
Формат: MPEG-PS
Размер файла: 1024 Мбайт
Продолжительность: 23 м.
Общий поток: 6040 Кбит/сек
Видео
Идентификатор: 224 (0xE0)
Формат: MPEG Video
Версия формата: Version 2
Профиль формата: Main@Main
Параметр BVOP формата: Да
Параметр матрицы формата: По умолчанию
Параметры GOP формата: M=3, N=12
Продолжительность: 23 м.
Вид битрейта: Переменный
Битрейт: 5344 Кбит/сек
Номинальный битрейт: 9800 Кбит/сек
Ширина: 720 пикс.
Высота: 480 пикс.
Соотношение сторон: 4:3
Частота кадров: 23,976 кадр/сек
Стандарт вещания: Component
Цветовое пространство: YUV
Подвыборка цветности: 4:2:0
Битовая глубина: 8 бит
Тип развёртки: Прогрессивная
Порядок развёртки: 2:3 Pulldown
Метод сжатия: С потерями
Бит/(Пиксели*Кадры): 0.645
Размер потока: 906 Мбайт (88%)
Аудио #1
Идентификатор: 128 (0x80)
Формат: AC-3
Формат/Информация: Audio Coding 3
Расширение режима: CM (complete main)
Продолжительность: 23 м.
Вид битрейта: Постоянный
Битрейт: 192 Кбит/сек
Канал(ы): 2 канала(ов)
Расположение каналов: Front: L R
Частота: 48,0 КГц
Битовая глубина: 16 бит
Метод сжатия: С потерями
Размер потока: 32,5 Мбайт (3%)
Аудио #2
Идентификатор: 129 (0x81)
Формат: AC-3
Формат/Информация: Audio Coding 3
Профиль формата: Dolby Digital
Расширение режима: CM (complete main)
Продолжительность: 23 м.
Вид битрейта: Постоянный
Битрейт: 192 Кбит/сек
Канал(ы): 2 канала(ов)
Расположение каналов: Front: L R
Частота: 48,0 КГц
Битовая глубина: 16 бит
Метод сжатия: С потерями
Задержка видео: 250 мс.
Размер потока: 32,5 Мбайт (3%)
Аудио #3
Идентификатор: 130 (0x82)
Формат: AC-3
Формат/Информация: Audio Coding 3
Профиль формата: Dolby Digital
Расширение режима: CM (complete main)
Продолжительность: 23 м.
Вид битрейта: Постоянный
Битрейт: 192 Кбит/сек
Канал(ы): 2 канала(ов)
Расположение каналов: Front: L R
Частота: 48,0 КГц
Битовая глубина: 16 бит
Метод сжатия: С потерями
Размер потока: 32,5 Мбайт (3%)
Текст #1
Идентификатор: 32 (0x20)
Формат: RLE
Формат/Информация: Run-length encoding
Текст #2
Идентификатор: 33 (0x21)
Формат: RLE
Формат/Информация: Run-length encoding
Меню
























Поделиться:




реклама партнёра


Вернуться к началу
 Профиль Отправить личное сообщение  
 
   Похожие торренты   Автор   Торрент   Размер 
В этой теме нет новых непрочитанных сообщений. Детсадовский полицейский / Kindergarten Cop [боевик, комедия, криминал, 1990] BDRip, Mvo

salma3

25 | 1

1.46 ГБ

В этой теме нет новых непрочитанных сообщений. Детсадовский полицейский / Kindergarten Cop [Боевик, триллер, комедия, 1990] BDRip 720p, 2Dvo+6Mvo+3Avo+Sub

salma3

9 | 3

10.9 ГБ

В этой теме нет новых непрочитанных сообщений. Детсадовский полицейский / Kindergarten Cop [Боевик, триллер, комедия, 1990] BDRip 720p, 2Dvo+6Mvo+3Avo+Sub

salma3

1 | 2

13.95 ГБ

В этой теме нет новых непрочитанных сообщений. Детсадовский полицейский 2 / Kindergarten Cop 2 [комедия, 2016] BDRip-AVC, Dub

salma3

315 | 8

2.18 ГБ

В этой теме нет новых непрочитанных сообщений. Детсадовский полицейский 2 / Kindergarten Cop 2 [комедия, 2016] HDRip, Dub [Лицензия]

salma3

4490 | 126

1.46 ГБ

В этой теме нет новых непрочитанных сообщений. Детсадовский полицейский 2 / Kindergarten Cop 2 [Комедия, 2016] BDRip-AVC, Dub [Лицензия]

salma3

5683 | 401

1.41 ГБ

В этой теме нет новых непрочитанных сообщений. Детсадовский полицейский 2 / Kindergarten Cop 2 [Комедия, 2016] BDRemux 1080p, Dub [Лицензия]

salma3

185 | 23

21.1 ГБ


Начать новую тему Ответить на тему  [ 1 сообщение ] 




Для Мосгорсуда, Роскомнадзора и рекламодателей:: mosgorsud-torrent[собачка]yandex.ru