Торрент файл
скачать торрент магнет ссылка Добавлен: 08 янв 2012, 22:04
Размер: 7.26 ГБ
Сидеров: 10
Личеров: 3
Автор

СообщениеДобавлено: 08 янв 2012, 22:04 

Не в сети
Супермодератор
Аватара пользователя
Дата регистрации:
11 апр 2010, 18:10
Спасибо: 5798 / 7
Сообщения: 56779
Да, господин министр ( 1 Сезон, 7 из 7 серий) / Yes, Minister

Перевод: Профессиональный (многоголосый, закадровый)
Cубтитры: Русские
Формат: DVD5, DVD Video, MPEG2, AC3
Страна: Великобритания
Режиссер: Питер Уайтмор, Сидней Лоттерби
Жанр: Комедия
Продолжительность: 7 x ~00:29
Год выпуска: 1980

В ролях: Пол Эддингтон, Найджел Хоуторн, Дерек Фаулдз, Диана Ходдинот

Описание: Блистательная сатира на чиновников, заблудившихся в коридорах власти, впервые была показана по телевидению Британии в начале 1980-х. Ее жадно смотрела вся страна во главе с Маргарет Тэтчер, которая признала, что политикам полезно смотреться в зеркало. По следам всенародно любимого сериала сценаристы написали продолжение, где министр дорос до премьера. Чуть позднее был издан комплект книжек, переведенных на русский язык несколько лет назад.

Рейтинг на КиноПоиск:8.500[/field]
Рейтинг на IMDB:8.9/10[/field][/field]

Видео: 720x576 (PAL 4:3), MPEG2, 25,000 кадр/сек, ~ 9 500 Кбит/сек
Аудио#1:Русский 48,0 КГц, AC3, 2 канала(ов), ~192 Кбит/сек [Профессиональный (многоголосый, закадровый)]
Аудио#2:Английский 48,0 КГц, AC3, 2 канала(ов), ~192 Кбит/сек [Оригинал][/field]

Размер: 2хDVD5
  • Диск 1 - 4.13 Гб
  • Диск 2 - 3.13 Гб



Полное имя: C:\Users\Петр\Documents\ТОРРЕНТЫ И Р2Р\Ministr\da_gospodin_ministr_1\DVD1\VIDEO_TS\VTS_04_1.VOB
Формат: MPEG-PS
Размер файла: 1024 Мбайт
Продолжительность: 28 м.
Общий поток: 5062 Кбит/сек
Видео
Идентификатор: 224 (0xE0)
Формат: MPEG Video
Версия формата: Version 2
Профиль формата: Main@Main
Параметр BVOP формата: Да
Параметр матрицы формата: По умолчанию
Параметры GOP формата: M=3, N=12
Продолжительность: 28 м.
Вид битрейта: Переменный
Битрейт: 4578 Кбит/сек
Номинальный битрейт: 9500 Кбит/сек
Ширина: 720 пикс.
Высота: 576 пикс.
Соотношение сторон: 4:3
Частота кадров: 25,000 кадр/сек
Стандарт вещания: PAL
Цветовое пространство: YUV
Подвыборка цветности: 4:2:0
Битовая глубина: 8 бит
Тип развёртки: Чересстрочная
Порядок развёртки: Верхнее поле первое
Метод сжатия: С потерями
Бит/(Пиксели*Кадры): 0.442
Размер потока: 926 Мбайт (90%)
Аудио #1
Идентификатор: 128 (0x80)
Формат: AC-3
Формат/Информация: Audio Coding 3
Расширение режима: CM (complete main)
Продолжительность: 28 м.
Вид битрейта: Постоянный
Битрейт: 192 Кбит/сек
Канал(ы): 2 канала(ов)
Расположение каналов: Front: L R
Частота: 48,0 КГц
Битовая глубина: 16 бит
Метод сжатия: С потерями
Размер потока: 38,8 Мбайт (4%)
Аудио #2
Идентификатор: 129 (0x81)
Формат: AC-3
Формат/Информация: Audio Coding 3
Расширение режима: CM (complete main)
Продолжительность: 28 м.
Вид битрейта: Постоянный
Битрейт: 192 Кбит/сек
Канал(ы): 2 канала(ов)
Расположение каналов: Front: L R
Частота: 48,0 КГц
Битовая глубина: 16 бит
Метод сжатия: С потерями
Размер потока: 38,8 Мбайт (4%)
Текст
Идентификатор: 32 (0x20)
Формат: RLE
Формат/Информация: Run-length encoding
Задержка видео: 1 с. 680 мс.
Меню




















Поделиться:




реклама партнёра


Вернуться к началу
 Профиль Отправить личное сообщение  
 
   Похожие торренты   Автор   Торрент   Размер 
В этой теме нет новых непрочитанных сообщений. Премьер-министр и я / The Prime Minister and I [01-17 из 17] (Lee So-Yeon) [романтическая, комедия, 2013] HDTVRip, dvo

Dracon

14 | 11

12.13 ГБ

В этой теме нет новых непрочитанных сообщений. Министр на доверии. Дело Сухомлинова [Документальный, история, 2014] SatRip

Dracon

2 | 2

640.29 МБ

В этой теме нет новых непрочитанных сообщений. Щенки из приюта № 17 / Pound Puppies / 1 сезон: 26 серий из 26 [мультфильм, комедия, семейный, 2010] DVDRip-AVC, Dub

salma3

15 | 7

7.7 ГБ

В этой теме нет новых непрочитанных сообщений. Щенки из приюта № 17 / Pound Puppies / 1 сезон: 26 серий из 26 [мультфильм, комедия, семейный, 2010] DVDRip, Dub

salma3

7 | 5

7.69 ГБ

В этой теме нет новых непрочитанных сообщений. Конь БоДжек / BoJack Horseman [1 сезон: 12 серий из 12] [Мультфильм, комедия, 2014] WEBRip 1080p [NewStudio]

Dracon

38 | 19

10.47 ГБ

В этой теме нет новых непрочитанных сообщений. VA - Господин Великий Рок [2012, Rock, MP3]

PriZraK

16 | 1

1.77 ГБ

В этой теме нет новых непрочитанных сообщений. Веселый господин / Один хороший человек / The Merry Gentleman [Драма, 2008] BDRip 720p, Dvo+Sub

salma3

57 | 3

3.77 ГБ


Начать новую тему Ответить на тему  [ 1 сообщение ] 




Для Мосгорсуда, Роскомнадзора и рекламодателей:: mosgorsud-torrent[собачка]yandex.ru