Торрент файл
скачать торрент магнет ссылка Добавлен: 08 янв 2012, 22:04
Размер: 4.35 ГБ
Сидеров: 0
Личеров: 3
Автор

СообщениеДобавлено: 08 янв 2012, 22:04 

Не в сети
Супермодератор
Аватара пользователя
Дата регистрации:
11 апр 2010, 18:10
Спасибо: 5802 / 7
Сообщения: 56779
Желтый карлик

Перевод: Не требуется
Субтитры: отсутствуют
Формат: DVD5, DVD Video, MPEG2, AC3
Страна: Россия
Режиссер: Дмитрий Астрахан
Жанр: Мелодрама, комедия
Продолжительность: 01:42:01
Год выпуска: 2001

В ролях: Александр Абдулов, Елена Проклова, Анна Легчилова, Михаил Парыгин, Лариса Борушко, Елена Бирюкова, Игорь Бочкин, Андрей Олефиренко, Владимир Золотухин, Андрей Душечкин

Описание: Любовь прекрасна, если только избранница подходит вашим родителям. Но если Вы из обеспеченной семьи известного писателя бульварных романов, а ваша пассия — продавщица, то это точно не понравится вашей маме. Чтобы не допустить свадьбы родители готовы на все… абсолютно на все. Даже на роман папы с вашей невестой.

Рейтинг на КиноПоиск:6.772[/field]
Рейтинг на IMDB:5.8/10[/field][/field]

Видео: 720x576, ( PAL 4:3), MPEG2 Video, 25,000 кадр/сек, ~ 9 800 Кбит/сек, 0.532 Бит/(Пиксели*Кадры)
Аудио: Русский, 48,0 КГц, AC3, 6 канала(ов), ~448 Кбит/сек


Полное имя: I:\Фильмы DVD\Наши\Желтый карлик DVD-5\VIDEO_TS\VTS_02_1.VOB
Формат: MPEG-PS
Размер файла: 1024 Мбайт
Продолжительность: 23 м.
Общий поток: 6083 Кбит/сек
Видео
Идентификатор: 224 (0xE0)
Формат: MPEG Video
Версия формата: Version 2
Профиль формата: Main@Main
Параметр BVOP формата: Да
Параметр матрицы формата: По умолчанию
Продолжительность: 23 м.
Вид битрейта: Переменный
Битрейт: 5513 Кбит/сек
Номинальный битрейт: 9800 Кбит/сек
Ширина: 720 пикс.
Высота: 576 пикс.
Соотношение сторон: 4:3
Частота кадров: 25,000 кадр/сек
Стандарт вещания: PAL
Цветовое пространство: YUV
Подвыборка цветности: 4:2:0
Битовая глубина: 8 бит
Тип развёртки: Чересстрочная
Порядок развёртки: Верхнее поле первое
Метод сжатия: С потерями
Бит/(Пиксели*Кадры): 0.532
Размер потока: 928 Мбайт (91%)
Аудио
Идентификатор: 128 (0x80)
Формат: AC-3
Формат/Информация: Audio Coding 3
Расширение режима: CM (complete main)
Продолжительность: 23 м.
Вид битрейта: Постоянный
Битрейт: 448 Кбит/сек
Канал(ы): 6 канала(ов)
Расположение каналов: Front: L C R, Side: L R, LFE
Частота: 48,0 КГц
Битовая глубина: 16 бит
Метод сжатия: С потерями
Размер потока: 75,4 Мбайт (7%)
Меню






















Поделиться:




реклама партнёра


Вернуться к началу
 Профиль Отправить личное сообщение  
 
   Похожие торренты   Автор   Торрент   Размер 
В этой теме нет новых непрочитанных сообщений. Распутницы / Absolument Fabuleux (Габриэль Агион) [2001, комедия, DVD5] mvo

Nickolas3435

3 | 2

4.36 ГБ

В этой теме нет новых непрочитанных сообщений. Любовь на диете / Sau sun nam nui [комедия, мелодрама, 2001] BDRip 720p, Avo+Sub

salma3

6 | 4

4.66 ГБ

В этой теме нет новых непрочитанных сообщений. Поговорим о сексе / Speaking of Sex [Мелодрама, комедия, 2001] WEB-DL 720p, Dvo+Sub

salma3

56 | 4

3.13 ГБ

В этой теме нет новых непрочитанных сообщений. Клуб неудачниц / Crush [Драма, мелодрама, комедия, 2001] DVDRip, Dvo

salma3

21 | 3

1.45 ГБ

В этой теме нет новых непрочитанных сообщений. Город и деревня / Town & Country [мелодрама, комедия, 2001] DVDRip, Mvo

salma3

70 | 4

1.42 ГБ

В этой теме нет новых непрочитанных сообщений. Сердцеедки / Heartbreakers [комедия, мелодрама, криминал, 2001] BDRip 1080p, Dub+Mvo+Avo+Sub

salma3

40 | 5

14.89 ГБ

В этой теме нет новых непрочитанных сообщений. Батальонъ (Дмитрий Месхиев) [Драма, Военный, Исторический, 2015] DVD5 [iTunes]

Dracon

15 | 2

4.23 ГБ


Начать новую тему Ответить на тему  [ 1 сообщение ] 




Для Мосгорсуда, Роскомнадзора и рекламодателей:: mosgorsud-torrent[собачка]yandex.ru