Торрент файл
скачать торрент магнет ссылка Добавлен: 08 янв 2012, 22:04
Размер: 4.09 ГБ
Сидеров: 4
Личеров: 3
Автор

СообщениеДобавлено: 08 янв 2012, 22:04 

Не в сети
Супермодератор
Аватара пользователя
Дата регистрации:
11 апр 2010, 18:10
Спасибо: 5802 / 7
Сообщения: 56779
За прекрасных дам!

Перевод: Не требуется
Субтитры: отсутствуют
Формат: DVD5, DVD Video, MPEG2, AC3
Страна: CCCP
Режиссер: Анатолий Эйрамджан
Жанр: Комедия, криминал
Продолжительность: 01:06:36
Год выпуска: 1989
В ролях: Александр Панкратов-Черный, Александр Абдулов, Елена Цыплакова, Ирина Шмелева, Ирина Розанова, Маргарита Сергеечева, Сергей Степанченк,о Елена Аржаник
Описание: В качестве своих жертв незадачливые грабители выбирают компанию молодых благополучных дам, решивших обсудить свои дела за прекрасным ужином…

Рейтинг на КиноПоиск:6.756[/field]
Рейтинг на IMDB:4.8/10[/field][/field]

Видео: 720x576, ( PAL 4:3), MPEG2 Video, 25,000 кадр/сек, ~8 500 Кбит/сек, 0.602 Бит/(Пиксели*Кадры)
Аудио #1:Русский, 48,0 КГц, AC3, 6 канала(ов), ~384 Кбит/сек
Аудио #2:Русский, 48,0 КГц, DTS, 6 канала(ов), ~1510 Кбит/сек[/field]

Полное имя: I:\Фильмы DVD\Наши\За прекрасных дам DVD-5\VIDEO_TS\VTS_01_1.VOB
Формат: MPEG-PS
Размер файла: 954 Мбайт
Продолжительность: 16 м.
Общий поток: 8298 Кбит/сек
Видео
Идентификатор: 224 (0xE0)
Формат: MPEG Video
Версия формата: Version 2
Профиль формата: Main@Main
Параметр BVOP формата: Да
Параметр матрицы формата: По умолчанию
Продолжительность: 16 м.
Вид битрейта: Переменный
Битрейт: 6239 Кбит/сек
Номинальный битрейт: 8500 Кбит/сек
Ширина: 720 пикс.
Высота: 576 пикс.
Соотношение сторон: 4:3
Частота кадров: 25,000 кадр/сек
Стандарт вещания: PAL
Цветовое пространство: YUV
Подвыборка цветности: 4:2:0
Битовая глубина: 8 бит
Тип развёртки: Чересстрочная
Порядок развёртки: Верхнее поле первое
Метод сжатия: С потерями
Бит/(Пиксели*Кадры): 0.602
Размер потока: 717 Мбайт (75%)
Аудио #1
Идентификатор: 128 (0x80)
Формат: AC-3
Формат/Информация: Audio Coding 3
Расширение режима: CM (complete main)
Продолжительность: 16 м.
Вид битрейта: Постоянный
Битрейт: 384 Кбит/сек
Канал(ы): 6 канала(ов)
Расположение каналов: Front: L C R, Side: L R, LFE
Частота: 48,0 КГц
Битовая глубина: 16 бит
Метод сжатия: С потерями
Задержка видео: -80 мс.
Размер потока: 44,1 Мбайт (5%)
Аудио #2
Идентификатор: 137 (0x89)
Формат: DTS
Формат/Информация: Digital Theater Systems
Продолжительность: 16 м.
Вид битрейта: Постоянный
Битрейт: 1510 Кбит/сек
Канал(ы): 6 канала(ов)
Расположение каналов: Front: L C R, Side: L R, LFE
Частота: 48,0 КГц
Битовая глубина: 24 бит
Метод сжатия: С потерями
Задержка видео: -80 мс.
Размер потока: 174 Мбайт (18%)
Меню






















Поделиться:




реклама партнёра


Вернуться к началу
 Профиль Отправить личное сообщение  
 
   Похожие торренты   Автор   Торрент   Размер 
В этой теме нет новых непрочитанных сообщений. Байки из склепа / Tales from the Crypt [ужасы, фэнтези, триллер, комедия, криминал, детектив, 1989] DVD5, Avo

salma3

1 | 3

4.18 ГБ

В этой теме нет новых непрочитанных сообщений. Бык и Шпиндель [01-04 из 04] (Анатолий Артамонов) [Криминал, Комедия, 2014] HDTVRip

Dracon

1035 | 63

2.15 ГБ

В этой теме нет новых непрочитанных сообщений. Бык и Шпиндель [01-04 из 04] (Анатолий Артамонов) [Криминал, Комедия, 2014] HDTV 1080i

Dracon

1 | 4

10.5 ГБ

В этой теме нет новых непрочитанных сообщений. Плюшка / Cookie [комедия, криминал, 1989] DVDRip, Avo

salma3

1 | 2

1.43 ГБ

В этой теме нет новых непрочитанных сообщений. Мы не ангелы / We're No Angels [комедия, криминал, 1989] WEB-DL 720p, Mvo+Avo+Sub

salma3

78 | 6

3.53 ГБ

В этой теме нет новых непрочитанных сообщений. Медвежатники / Breaking In [комедия, приключения, криминал, 1989] DVDRip, Mvo

salma3

13 | 5

1.47 ГБ

В этой теме нет новых непрочитанных сообщений. Слепая ярость / Blind Fury [боевик, триллер, драма, комедия, криминал, 1989] Blu-ray 1080p, Dub+Mvo+Avo

salma3

11 | 3

20.3 ГБ


Начать новую тему Ответить на тему  [ 1 сообщение ] 




Для Мосгорсуда, Роскомнадзора и рекламодателей:: mosgorsud-torrent[собачка]yandex.ru