Торрент файл
скачать торрент магнет ссылка Добавлен: 08 янв 2012, 22:04
Размер: 7.99 ГБ
Сидеров: 2
Личеров: 3
Автор

СообщениеДобавлено: 08 янв 2012, 22:04 

Не в сети
Супермодератор
Аватара пользователя
Дата регистрации:
11 апр 2010, 18:10
Спасибо: 5798 / 7
Сообщения: 56779
Белый Бим - Черное ухо (2 из 2 серий) 2xDVD-5

Перевод: Не требуется
Cубтитры: отсутствуют
Формат: DVD5, DVD Video, MPEG2, AC3
Страна: CCCP
Режиссер: Станислав Ростоцкий
Жанр: Драма
Продолжительность: 01:30:00+01:22:28
Год выпуска: 1976

В ролях: Вячеслав Тихонов, Валентина Владимирова, Михаил Дадыко, Иван Рыжов, Ирина Шевчук, Михаил Зимин, Геннадий Кочкожаров, Римма Мануковская, Мария Скворцова, Анатолий Баранцев

Описание: Трогательная лирическая киноповесть о судьбе собаки, теряющей любимого хозяина, об отношении людей к «братьям меньшим», которое как рентгеном просвечивает души, выявляя в одних низость и мелочную подлость, а в других — благородство, способность сострадать и любить…

Рейтинг на КиноПоиск:8.248[/field]
Рейтинг на IMDB:7.9/10[/field][/field]

Видео: 720x576, ( PAL 4:3), MPEG2 Video, 25,000 кадр/сек, ~8 000 Кбит/сек, 0.617 Бит/(Пиксели*Кадры)
Аудио: Русский, 48,0 КГц, AC3, 2 канала(ов), ~192 Кбит/сек

Доп. информация: Главный приз на МКФ в Карловых Варах-1978.
Номинация на премию Оскар-1978 в категории "Лучший фильм на иностранном языке".


Полное имя: К:\Белый Бим Черное ухо 2xDVD5\BIM_1\VIDEO_TS\VTS_03_1.VOB
Формат: MPEG-PS
Размер файла: 1024 Мбайт
Продолжительность: 21 м.
Общий поток: 6724 Кбит/сек
Видео
Идентификатор: 224 (0xE0)
Формат: MPEG Video
Версия формата: Version 2
Профиль формата: Main@Main
Параметр BVOP формата: Да
Параметр матрицы формата: По умолчанию
Продолжительность: 21 м.
Вид битрейта: Переменный
Битрейт: 6399 Кбит/сек
Номинальный битрейт: 8000 Кбит/сек
Ширина: 720 пикс.
Высота: 576 пикс.
Соотношение сторон: 4:3
Частота кадров: 25,000 кадр/сек
Стандарт вещания: PAL
Цветовое пространство: YUV
Подвыборка цветности: 4:2:0
Битовая глубина: 8 бит
Тип развёртки: Чересстрочная
Порядок развёртки: Нижнее поле первое
Метод сжатия: С потерями
Бит/(Пиксели*Кадры): 0.617
Размер потока: 974 Мбайт (95%)
Аудио
Идентификатор: 128 (0x80)
Формат: AC-3
Формат/Информация: Audio Coding 3
Расширение режима: CM (complete main)
Продолжительность: 21 м.
Вид битрейта: Постоянный
Битрейт: 192 Кбит/сек
Канал(ы): 2 канала(ов)
Расположение каналов: Front: L R
Частота: 48,0 КГц
Битовая глубина: 16 бит
Метод сжатия: С потерями
Задержка видео: 680 мс.
Размер потока: 29,2 Мбайт (3%)
Меню


























Поделиться:




реклама партнёра


Вернуться к началу
 Профиль Отправить личное сообщение  
 
   Похожие торренты   Автор   Торрент   Размер 
В этой теме нет новых непрочитанных сообщений. И на камнях растут деревья (Кнут Андерсен / Knut Andersen, Станислав Ростоцкий) [1985г., драма, приключения, DVDRip]

Alfredovich

4 | 3

2.02 ГБ

В этой теме нет новых непрочитанных сообщений. Черное солнце / Soleil noir [драма, приключения, 1966] DVВRip, Mvo

salma3

1 | 2

1.42 ГБ

В этой теме нет новых непрочитанных сообщений. Черное Рождество / Black Nativity [мюзикл, драма, 2013] HDRip, dub [Чистый звук]

Dracon

6 | 4

1.46 ГБ

В этой теме нет новых непрочитанных сообщений. Черное поле / Mavro livadi / Black Field (Вардис Маринакис / Vardis Marinakis) [2009г., Греция, драма, исторический, HDRip-AVC] avo

Alfredovich

13 | 6

2.16 ГБ

В этой теме нет новых непрочитанных сообщений. Черное озеро / Озеро нуар / Lake noir [ужасы, драма 2013] WEB-DLRip, avo

Dracon

14 | 7

1.37 ГБ

В этой теме нет новых непрочитанных сообщений. Черное озеро / Озеро нуар / Lake noir [ужасы, драма, 2013] WEB-DL 720p, Avo

salma3

0 | 3

2.68 ГБ

В этой теме нет новых непрочитанных сообщений. Чёрное лето Японии: Ложное обвинение / Darkness in the Light / Nippon no kuroi natsu - Enzai (Кэй Кумаи / Kei Kumai) [2001г., Япония, драма, DVDRip] Sub

Alfredovich

6 | 2

1.43 ГБ


Начать новую тему Ответить на тему  [ 1 сообщение ] 




Для Мосгорсуда, Роскомнадзора и рекламодателей:: mosgorsud-torrent[собачка]yandex.ru