Торрент файл
скачать торрент магнет ссылка Добавлен: 08 янв 2012, 22:03
Размер: 4.36 ГБ
Сидеров: 0
Личеров: 4
Автор

СообщениеДобавлено: 08 янв 2012, 22:03 

Не в сети
Супермодератор
Аватара пользователя
Дата регистрации:
11 апр 2010, 18:10
Спасибо: 5960 / 7
Сообщения: 56765
Знакомство с родителями / Meet the Parents

Перевод: Профессиональный (полное дублирование)
Cубтитры: Русские, английские
Формат: DVD5, DVD Video, MPEG2, AC3
Страна: США
Режиссер: Джей Роуч
Жанр: Мелодрама, комедия
Продолжительность: 01:43:14
Год выпуска: 2000

В ролях: Роберт Де Ниро, Бен Стиллер, Тери Поло, Блайт Даннер, Николь ДеХафф, Джон Абрахамс, Оуэн Уилсон, Джеймс Ребхорн, Томас МакКарти, Филлис ДжорджРоли дублировали:Алексей Золотницкий, Владимир Вихров, Мария Овчинникова, Любовь Германова, Жанна Никонов

Описание: Обладатель замечательной фамилии, санитар Грэг Трахер, отправляется за город, чтобы познакомится с родителями своей девушки Пэм. Здесь Грэг собирается торжественно просить руки возлюбленной. Но, к несчастью, Грэг — парень невезучий, и любые благие начинания в его исполнении превращаются в сущий кошмар.Несчастный Трахер и в самом страшном сне не предполагал, какие его ждут испытания. Дело в том, что отец Пэм, Джек Бернс, — отставной сотрудник ЦРУ, устраивает приятелям дочери свою особую и жесткую проверку. Эта проверка включает в себя даже специальный тест на детекторе лжи!

Рейтинг на КиноПоиск:7.690[/field]
Рейтинг MPAA:PG-13[/field]
Рейтинг на IMDB:7.0/10[/field][/field]

Видео: 720x576, (PAL 16:9), MPEG2 Video, 25,000 кадр/сек, ~ 7933 Кбит/сек, 0.559 Бит/(Пиксели*Кадры)
Аудио: Русский, 48,0 КГц, AC3, 2 канала(ов), ~192 Кбит/сек [Профессиональный (полное дублирование)


Полное имя: D:\РОБЕРТ ДЕ НИРО\Знакомство с родителями DVD-5\VIDEO_TS\VTS_01_1.VOB
Формат: MPEG-PS
Размер файла: 1024 Мбайт
Продолжительность: 23 м.
Общий поток: 6114 Кбит/сек
Видео
Идентификатор: 224 (0xE0)
Формат: MPEG Video
Версия формата: Version 2
Профиль формата: Main@Main
Параметр BVOP формата: Да
Параметр матрицы формата: По умолчанию
Продолжительность: 23 м.
Вид битрейта: Переменный
Битрейт: 5801 Кбит/сек
Номинальный битрейт: 7933 Кбит/сек
Ширина: 720 пикс.
Высота: 576 пикс.
Соотношение сторон: 2,35:1
Частота кадров: 25,000 кадр/сек
Стандарт вещания: PAL
Цветовое пространство: YUV
Подвыборка цветности: 4:2:0
Битовая глубина: 8 бит
Тип развёртки: Чересстрочная
Порядок развёртки: Верхнее поле первое
Метод сжатия: С потерями
Бит/(Пиксели*Кадры): 0.559
Размер потока: 971 Мбайт (95%)
Аудио
Идентификатор: 129 (0x81)
Формат: AC-3
Формат/Информация: Audio Coding 3
Расширение режима: CM (complete main)
Продолжительность: 23 м.
Вид битрейта: Постоянный
Битрейт: 192 Кбит/сек
Канал(ы): 2 канала(ов)
Расположение каналов: Front: L R
Частота: 48,0 КГц
Битовая глубина: 16 бит
Метод сжатия: С потерями
Размер потока: 32,2 Мбайт (3%)
Текст #1
Идентификатор: 32 (0x20)
Формат: RLE
Формат/Информация: Run-length encoding
Текст #2
Идентификатор: 33 (0x21)
Формат: RLE
Формат/Информация: Run-length encoding
Меню
























Поделиться:




реклама партнёра


Вернуться к началу
 Профиль Отправить личное сообщение  
 
   Похожие торренты   Автор   Торрент   Размер 
В этой теме нет новых непрочитанных сообщений. Знакомство с родителями / Meet the Parents [мелодрама, комедия, 2000] Blu-ray EUR 1080p, Dub+Avo+Sub

salma3

32 | 38

37.77 ГБ

В этой теме нет новых непрочитанных сообщений. На грани / The Brink [S01] (Джон Полл, Джей Роуч, Скотт Уинант) [Комедия, 2015] HDTVRip 1080p [NewStudio]

Dracon

77 | 69

20.13 ГБ

В этой теме нет новых непрочитанных сообщений. На грани / The Brink [1 сезон 1-10 серия из 10] (Джон Полл, Джей Роуч, Скотт Уинант) [Комедия, 2015] HDTVRip [Amedia]

Dracon

65 | 53

3.37 ГБ

В этой теме нет новых непрочитанных сообщений. На грани / The Brink [01х01-10 из 10] (Джон Полл, Джей Роуч, Скотт Уинант) [Комедия, 2015] HDTVRip 720p [Amedia]

Dracon

204 | 149

10 ГБ

В этой теме нет новых непрочитанных сообщений. На грани / The Brink [S01] (Джон Полл, Джей Роуч, Скотт Уинант) [Комедия, 2015] HDTVRip 720p [Gears Media]

Dracon

39 | 29

6.82 ГБ

В этой теме нет новых непрочитанных сообщений. Julia Taylor - Знакомство с Трахателями 5 / Meet The Fuckers 5 (2006) DVDRip

salma3

11 | 7

500.16 МБ

В этой теме нет новых непрочитанных сообщений. Трамбо / Trumbo (Джей Роуч) [драма, биография, 2015] HDRip, dvo

Dracon

498 | 47

1.37 ГБ


Начать новую тему Ответить на тему  [ 1 сообщение ] 




Для Мосгорсуда, Роскомнадзора и рекламодателей:: mosgorsud-torrent[собачка]yandex.ru