Торрент файл
скачать торрент магнет ссылка Добавлен: 08 янв 2012, 22:02
Размер: 3.76 ГБ
Сидеров: 1
Личеров: 9
Автор

СообщениеДобавлено: 08 янв 2012, 22:02 

Не в сети
Супермодератор
Аватара пользователя
Дата регистрации:
11 апр 2010, 18:10
Спасибо: 5801 / 7
Сообщения: 56779
И Бог создал женщину / And God Created Woman

Перевод: Профессиональный (многоголосый, закадровый)
Cубтитры: отсутствуют
Формат: DVD5, DVD Video, MPEG2, AC3
Страна: США
Режиссер: Роже Вадим
Жанр: Драма, мелодрама, комедия
Продолжительность: 01:33:56
Год выпуска: 1988

В ролях: Ребекка Де Морнэй, Винсент Спано, Фрэнк Ланджелла, Донован Лейтч, Джудит Чэпман, Jamie McEnnan, Бенжамин Мутон, Эйнштейн Браун, Дэвид Лопез, Тельма Хьюстон

Описание: Своенравная красавица Робин из тех женщин, которые созданы, чтобы нарушать все правила и сводить мужчин с ума. Совершив дерзкий побег из тюрьмы, она останавливает шикарный лимузин, за рулем которого оказывается известный политик Джеймс Тирнан. Он возвращает Робин в тюрьму, хотя и очарован ее красотой. И затем, благодаря своему влиянию и законной уловке — браку, заключенному в тюрьме, Тирнан помогает Робин обрести свободу. Но ни семейная жизнь с молодым красивым парнем, ни страстная любовь Тирнана не милы Робин. Она мечтает создать рок-группу и стать звездой. Отвергнутый Тирнан решает отомстить Робин: вновь отправить ее за решетку…

Рейтинг на КиноПоиск:6.227[/field]
Рейтинг МРАА:R[/field]
Рейтинг на IMDB:4.1/10[/field][/field]

Видео: 720x576, (PAL 4:3), MPEG2, 25,000 кадр/сек, ~ 7 500 Кбит/сек, 0.499 Бит/(Пиксели*Кадры)
Аудио: Русский, 48,0 КГц, AC3, 6 канала(ов), ~448 Кбит/сек [Профессиональный (многоголосый закадровый)]

Доп. информация: Релиз на DVD 4 марта 2010, «Вольга»


Полное имя: H:\Фильмы DVD\И Бог создал женщину DVD-5\VIDEO_TS\VTS_03_1.VOB
Формат: MPEG-PS
Размер файла: 1024 Мбайт
Продолжительность: 24 м.
Общий поток: 5736 Кбит/сек
Видео
Идентификатор: 224 (0xE0)
Формат: MPEG Video
Версия формата: Version 2
Профиль формата: Main@Main
Параметр BVOP формата: Да
Параметр матрицы формата: По умолчанию
Параметры GOP формата: M=3, N=12
Продолжительность: 24 м.
Вид битрейта: Переменный
Битрейт: 5174 Кбит/сек
Номинальный битрейт: 7500 Кбит/сек
Ширина: 720 пикс.
Высота: 576 пикс.
Соотношение сторон: 4:3
Частота кадров: 25,000 кадр/сек
Стандарт вещания: PAL
Цветовое пространство: YUV
Подвыборка цветности: 4:2:0
Битовая глубина: 8 бит
Тип развёртки: Чересстрочная
Порядок развёртки: Верхнее поле первое
Метод сжатия: С потерями
Бит/(Пиксели*Кадры): 0.499
Размер потока: 923 Мбайт (90%)
Аудио
Идентификатор: 128 (0x80)
Формат: AC-3
Формат/Информация: Audio Coding 3
Расширение режима: CM (complete main)
Продолжительность: 24 м.
Вид битрейта: Постоянный
Битрейт: 448 Кбит/сек
Канал(ы): 6 канала(ов)
Расположение каналов: Front: L C R, Side: L R, LFE
Частота: 48,0 КГц
Битовая глубина: 16 бит
Метод сжатия: С потерями
Размер потока: 79,9 Мбайт (8%)
Меню






















Поделиться:




реклама партнёра


Вернуться к началу
 Профиль Отправить личное сообщение  
 
   Похожие торренты   Автор   Торрент   Размер 
В этой теме нет новых непрочитанных сообщений. Франкенштейн создал женщину / Frankenstein Created Woman [Ужасы, фантастика, 1967] BDRip, Mvo

salma3

8 | 2

1.37 ГБ

В этой теме нет новых непрочитанных сообщений. Мужчина ищет женщину / Man Seeking Woman [S02 / 01-06 из 10] [комедия, 2016] HDTVRip [Ozz]

Dracon

3 | 1

1.23 ГБ

В этой теме нет новых непрочитанных сообщений. Мужчина ищет женщину / Man Seeking Woman [S01] (Джонатан Крисел, Тим Киркби, Бен Берман) [2015, комедия, HDTVRip | Ozz]

Nickolas3435

20 | 12

1.86 ГБ

В этой теме нет новых непрочитанных сообщений. Красотка / Pretty Woman [Комедия, мелодрама, 1990] DVD5, Mvo

salma3

10 | 5

4.35 ГБ

В этой теме нет новых непрочитанных сообщений. Другая женщина / Another woman [драма, 1988] DVDRip, Mvo

salma3

52 | 2

1.37 ГБ

В этой теме нет новых непрочитанных сообщений. Незамужняя женщина / An Unmarried Woman (Пол Мазурски / Paul Mazursky) [1978г., драма, мелодрама, комедия, DVDRip] AVO

Alfredovich

26 | 4

1.39 ГБ

В этой теме нет новых непрочитанных сообщений. Изюминка / Punchline [Драма, комедия, мелодрама, 1988] WEB-DL 720p, Mvo+Avo+Sub

salma3

29 | 0

3.83 ГБ


Начать новую тему Ответить на тему  [ 1 сообщение ] 




Для Мосгорсуда, Роскомнадзора и рекламодателей:: mosgorsud-torrent[собачка]yandex.ru