Торрент файл
скачать торрент магнет ссылка Добавлен: 08 янв 2012, 22:02
Размер: 4.06 ГБ
Сидеров: 0
Личеров: 5
Автор

СообщениеДобавлено: 08 янв 2012, 22:02 

Не в сети
Супермодератор
Аватара пользователя
Дата регистрации:
11 апр 2010, 18:10
Спасибо: 5802 / 7
Сообщения: 56779
Жемчужная девушка / O perlove panne

Перевод: Профессиональный (многоголосый, закадровый)
Cубтитры: отсутствуют
Формат: DVD5, DVD Video, MPEG2, AC3
Страна: Чехия
Режиссер: Владимир Дрга
Жанр: Фэнтези, приключения, семейный
Продолжительность: 01:10:19
Год выпуска: 1997

В ролях: Яромир Ганзлик, Филип Блажек, Каролина Сочорова, Йитка Йежкова, Радек Зак,Марек Павловски, Филип Раймонт, Ота Ярак, Ян Гартль, Радован Лукавски

Описание: Много лет рыцарь Корнелиус тоскует по своей жене, похищенной злым волшебником в день после свадьбы. У несчастного рыцаря остался только портрет любимой. Но однажды и он исчезает. Корнелиус отправляется на поиски… А тем временем, молодой комедиант влюбляется в девушку, как две капли воды прохожую на пропавшую жену Конелиуса…

Рейтинг на КиноПоиск:2.500[/field]
Рейтинг на IMDB:4.3/10[/field][/field]

Видео: 720x576, ( PAL 16:9), MPEG2 Video, 25,000 кадр/сек, ~ 9 416 Кбит/сек
Аудио: Русский, 48,0 КГц, AC3, 2 канала(ов), ~192 Кбит/сек [Профессиональный (многоголосый, закадровый)]

Доп. информация: Релиз на DVD 9 июня 2009, «Сейприс»


Полное имя: H:\Фильмы DVD\Жемчужная девушка DVD-5\VIDEO_TS\VTS_01_1.VOB
Формат: MPEG-PS
Размер файла: 1024 Мбайт
Продолжительность: 17 м.
Общий поток: 8133 Кбит/сек
Библиотека кодирования: encoded by TMPGEnc (ver. 2.521.58.169)
Видео
Идентификатор: 224 (0xE0)
Формат: MPEG Video
Версия формата: Version 2
Профиль формата: Main@Main
Параметр BVOP формата: Да
Параметр матрицы формата: По умолчанию
Продолжительность: 17 м.
Вид битрейта: Переменный
Битрейт: 7779 Кбит/сек
Ширина: 720 пикс.
Высота: 576 пикс.
Соотношение сторон: 4:3
Частота кадров: 25,000 кадр/сек
Стандарт вещания: PAL
Цветовое пространство: YUV
Подвыборка цветности: 4:2:0
Битовая глубина: 8 бит
Метод сжатия: С потерями
Бит/(Пиксели*Кадры): 0.750
Размер потока: 979 Мбайт (96%)
Библиотека кодирования: TMPGEnc 2.521.58.169
Аудио
Идентификатор: 128 (0x80)
Формат: AC-3
Формат/Информация: Audio Coding 3
Расширение режима: CM (complete main)
Продолжительность: 17 м.
Вид битрейта: Постоянный
Битрейт: 192 Кбит/сек
Канал(ы): 2 канала(ов)
Расположение каналов: Front: L R
Частота: 48,0 КГц
Битовая глубина: 16 бит
Метод сжатия: С потерями
Задержка видео: 104 мс.
Размер потока: 24,2 Мбайт (2%)
Меню

















Поделиться:




реклама партнёра


Вернуться к началу
 Профиль Отправить личное сообщение  
 
   Похожие торренты   Автор   Торрент   Размер 
В этой теме нет новых непрочитанных сообщений. Простое желание / A Simple Wish [Фэнтези, приключения, комедия, семейный, 1997] BDRip 1080p, Mvo

salma3

4 | 4

9.57 ГБ

В этой теме нет новых непрочитанных сообщений. Простое желание / A Simple Wish [Фэнтези, приключения, комедия, семейный, 1997] BDRip 720p, Mvo

salma3

4 | 1

4.42 ГБ

В этой теме нет новых непрочитанных сообщений. Птица Феникс и ковер-самолет / The Phoenix and the Carpet [фэнтези, приключения, семейный, 1997] DVDRip, Mvo

salma3

32 | 3

1.46 ГБ

В этой теме нет новых непрочитанных сообщений. Ну погоди! [01-25 из 25] (Вячеслав Котёночкин, Юрий Бутырин, Владимир Тарасов...) [1969-2006, мультфильм, комедия, семейный, приключения, DVD5]

Nickolas3435

696 | 58

4.36 ГБ

В этой теме нет новых непрочитанных сообщений. Малефисента / Maleficent [фэнтези, мелодрама, приключения, семейный, 2014] DVD5, Dub+Sub [лицензия]

Dracon

126 | 18

4.37 ГБ

В этой теме нет новых непрочитанных сообщений. Алиса в Зазеркалье / Alice Through the Looking Glass [Фэнтези, приключения, семейный, 2016] DVD5, Dub

salma3

45 | 27

4.37 ГБ

В этой теме нет новых непрочитанных сообщений. Дом / Home (Тим Джонсон) [мультфильм, фантастика, фэнтези, комедия, приключения, семейный, 2015] DVD5, Dub+Sub [Лицензия]

Dracon

3 | 0

4.36 ГБ


Начать новую тему Ответить на тему  [ 1 сообщение ] 




Для Мосгорсуда, Роскомнадзора и рекламодателей:: mosgorsud-torrent[собачка]yandex.ru