Торрент файл
скачать торрент магнет ссылка Добавлен: 08 янв 2012, 22:02
Размер: 4.22 ГБ
Сидеров: 0
Личеров: 14
Автор

СообщениеДобавлено: 08 янв 2012, 22:02 

Не в сети
Супермодератор
Аватара пользователя
Дата регистрации:
11 апр 2010, 18:10
Спасибо: 5995 / 7
Сообщения: 56685
Игра всерьез


Перевод: Не требуется
Субтитры: отсутствуют
Формат: DVD5, DVD Video, MPEG2, AC3
Страна: Россия, Украина
Режиссер: Анатолий Иванов
Жанр: Детектив
Продолжительность: 01:46:20
Год выпуска: 1992

В ролях: Олег Фомин, Александр Потапов, Армен Джигарханян, Александр Мартынов, Ольга Толстецкая, Сергей Никоненко, Нина Антонова, Василий Бородин, Олег Масленников, Анатолий Юрченко

Описание: Бывшему милиционеру, уволенному из уголовного розыска за превышение служебных полномочий, поручают заняться поисками наводчика квартирных краж, а для конспирации, в интересах следствия, его назначают участковым. Так снова, по сути, с нуля, начинает Стас свою служебную карьеру…

Рейтинг на КиноПоиск:7.391[/field]
Рейтинг на IMDB:3.8/10[/field][/field]

Видео: 720x576, ( PAL 4:3), MPEG2 Video, 25,000 кадр/сек, ~ 5 100 Кбит/сек
Аудио #1: Русский, 48,0 КГц, AC3, 6 канала(ов), ~384 Кбит/сек
Аудио #2: Русский, 48,0 КГц, AC3, 2 канала(ов), ~192 Кбит/сек


Полное имя: I:\Фильмы DVD\Наши\Игра всерьез\VIDEO_TS\VTS_01_1.VOB
Формат: MPEG-PS
Размер файла: 1024 Мбайт
Продолжительность: 25 м.
Общий поток: 5640 Кбит/сек
Видео
Идентификатор: 224 (0xE0)
Формат: MPEG Video
Версия формата: Version 2
Профиль формата: Main@Main
Параметр BVOP формата: Да
Параметр матрицы формата: По умолчанию
Продолжительность: 25 м.
Вид битрейта: Переменный
Битрейт: 5100 Кбит/сек
Ширина: 720 пикс.
Высота: 576 пикс.
Соотношение сторон: 4:3
Частота кадров: 25,000 кадр/сек
Стандарт вещания: PAL
Цветовое пространство: YUV
Подвыборка цветности: 4:2:0
Битовая глубина: 8 бит
Тип развёртки: Чересстрочная
Порядок развёртки: Нижнее поле первое
Метод сжатия: С потерями
Бит/(Пиксели*Кадры): 0.492
Размер потока: 899 Мбайт (88%)
Аудио #1
Идентификатор: 128 (0x80)
Формат: AC-3
Формат/Информация: Audio Coding 3
Расширение режима: CM (complete main)
Продолжительность: 25 м.
Вид битрейта: Постоянный
Битрейт: 384 Кбит/сек
Канал(ы): 6 канала(ов)
Расположение каналов: Front: L C R, Side: L R, LFE
Частота: 48,0 КГц
Битовая глубина: 16 бит
Метод сжатия: С потерями
Размер потока: 69,7 Мбайт (7%)
Аудио #2
Идентификатор: 129 (0x81)
Формат: AC-3
Формат/Информация: Audio Coding 3
Расширение режима: CM (complete main)
Продолжительность: 25 м.
Вид битрейта: Постоянный
Битрейт: 192 Кбит/сек
Канал(ы): 2 канала(ов)
Расположение каналов: Front: L R
Частота: 48,0 КГц
Битовая глубина: 16 бит
Метод сжатия: С потерями
Размер потока: 34,9 Мбайт (3%)
Меню






















Поделиться:



Вернуться к началу
 Профиль Отправить личное сообщение  
 
   Похожие торренты   Автор   Торрент   Размер 
В этой теме нет новых непрочитанных сообщений. Анатолий Кучерена - Время спрута (Анатолий Кучерена) [Детектив, 2015] MP3

Dracon

109 | 5

254.25 МБ

В этой теме нет новых непрочитанных сообщений. Взгляд из прошлого [01-04 из 04] (Анатолий Артамонов) [детектив, 2015] SATRip

Dracon

33 | 3

2.41 ГБ

В этой теме нет новых непрочитанных сообщений. Игра / The Game [триллер, драма, детектив, 1997] HDRip-AVC, Mvo

salma3

52 | 2

744.95 МБ

В этой теме нет новых непрочитанных сообщений. Игра навылет / Sleuth [триллер, детектив, 1972] DVDRip-AVC, Dvo

salma3

0 | 0

2.19 ГБ

В этой теме нет новых непрочитанных сообщений. Игра / The Game [триллер, драма, детектив, 1997] BDRemux 1080р, Dub

salma3

20 | 9

44.41 ГБ

В этой теме нет новых непрочитанных сообщений. Игра палача / Hangman's Game [ужасы, триллер, детектив, 2015] WEB-DLRip, Avo

salma3

208 | 14

1.38 ГБ

В этой теме нет новых непрочитанных сообщений. Игра в прятки / Hide and Seek [ужасы, триллер, детектив, 2005] HDTVRip, Dub

salma3

23 | 7

1.46 ГБ


Начать новую тему Ответить на тему  [ 1 сообщение ] 




Для Мосгорсуда, Роскомнадзора и рекламодателей:: mosgorsud-torrent[собачка]yandex.ru
cron