Торрент файл
скачать торрент магнет ссылка Добавлен: 08 янв 2012, 22:02
Размер: 4.26 ГБ
Сидеров: 0
Личеров: 4
Автор

СообщениеДобавлено: 08 янв 2012, 22:02 

Не в сети
Супермодератор
Аватара пользователя
Дата регистрации:
11 апр 2010, 18:10
Спасибо: 5801 / 7
Сообщения: 56779
Игра в ящик / Des pissenlits par la racine

Перевод: Авторский ( Сергей Козлов)
Cубтитры: отсутствуют
Формат: DVD5, DVD Video, MPEG2, AC3
Страна: Франция, Италия
Режиссер: Жорж Лотнер
Жанр: Комедия
Продолжительность: 01:32:22
Год выпуска: 1964

В ролях: Луи де Фюнес Мишель Серро Мирей Дарк Морис Биро Франсис Бланш Раймон Мёнье Юбер Дешан Джанни Музи Барбара Брэнд Раймона

Описание: Жо и Ритон по кличке Чирик выходят из тюрьмы после нескольких лет заключения. За это время невеста Чирика Роки завела себе нового дружка по имени Жак. Чирик вне себя от злости и мечтает встретиться с Жаком для мужского разговора. У Жо совсем другая мечта — ему очень хотелось бы разбогатеть и жить с размахом, как до тюрьмы. Желая попытать счастья, он просит Чирика поставить для него на тотализаторе на 7, 9, 18. Сделав ставку, Чирик кладет билет в нагрудный карман и вдруг… видит Жака. Начинается погоня. Жак прячется в театре, в котором играет его кузен Жером. Там Чирик настигает своего врага и пытается убить его, но случайно погибает сам. Жак прячет труп в футляр от контрабаса, который забирает с собой Жером. По пути из театра домой они попадают на вечеринку, где встречаются с Жо и Роки. Там-то и выясняется, что за «контрабас» находится в футляре. Не зная, куда деть труп, Жером везет его к себе домой. Жак тоже решает пока спрятаться у него. На следующий день становится известно, что в лотерею выиграл поставивший на 7, 9, 18. Победитель должен получить двести миллионов франков. Жо вспоминает, что это его комбинация, и пытается разыскать труп Чирика, в кармане пиджака которого должен быть выигрышный билет…

Рейтинг на КиноПоиск:7.028[/field]
Рейтинг на IMDB:4.3/10[/field][/field]

Видео: 720x576, ( PAL 16:9), MPEG2 Video, 25,000 кадр/сек, ~ 8000 Кбит/сек
Аудио #1:Русский, 48,0 КГц, AC3, 2 канала(ов), ~192 Кбит/сек [Авторский (одноголосый закадровый)] Сергей Козлов
Аудио #2:Французский, 48,0 КГц, AC3, 2 канала(ов), ~224 Кбит/сек [Оригинал][/field]

Доп. информация: Фильмснят по роману Кларенса Уэффа «Жил-был покойник»
Роль Луи де Фюнеса в этом фильме стала его последней второстепенной ролью. После этого фильма Луи де Фюнес играл уже только главные роли.


Полное имя: D:\ЛУИ ДЕ ФЮНЕС\1964 Игра в ящик DVD-5\VIDEO_TS\VTS_01_1.VOB
Формат: MPEG-PS
Размер файла: 1000 Мбайт
Продолжительность: 21 м.
Общий поток: 6368 Кбит/сек
Видео
Идентификатор: 224 (0xE0)
Формат: MPEG Video
Версия формата: Version 2
Профиль формата: Main@Main
Параметр BVOP формата: Да
Параметр матрицы формата: По умолчанию
Продолжительность: 21 м.
Вид битрейта: Переменный
Битрейт: 5825 Кбит/сек
Номинальный битрейт: 8000 Кбит/сек
Ширина: 720 пикс.
Высота: 576 пикс.
Соотношение сторон: 2,35:1
Частота кадров: 25,000 кадр/сек
Стандарт вещания: PAL
Цветовое пространство: YUV
Подвыборка цветности: 4:2:0
Битовая глубина: 8 бит
Тип развёртки: Чересстрочная
Порядок развёртки: Верхнее поле первое
Метод сжатия: С потерями
Бит/(Пиксели*Кадры): 0.562
Размер потока: 915 Мбайт (91%)
Аудио #1
Идентификатор: 128 (0x80)
Формат: AC-3
Формат/Информация: Audio Coding 3
Расширение режима: CM (complete main)
Продолжительность: 21 м.
Вид битрейта: Постоянный
Битрейт: 192 Кбит/сек
Канал(ы): 2 канала(ов)
Расположение каналов: Front: L R
Частота: 48,0 КГц
Битовая глубина: 16 бит
Метод сжатия: С потерями
Размер потока: 30,2 Мбайт (3%)
Аудио #2
Идентификатор: 129 (0x81)
Формат: AC-3
Формат/Информация: Audio Coding 3
Расширение режима: CM (complete main)
Продолжительность: 21 м.
Вид битрейта: Постоянный
Битрейт: 224 Кбит/сек
Канал(ы): 2 канала(ов)
Расположение каналов: Front: L R
Частота: 48,0 КГц
Битовая глубина: 16 бит
Метод сжатия: С потерями
Размер потока: 35,2 Мбайт (4%)
Меню
























Поделиться:




реклама партнёра


Вернуться к началу
 Профиль Отправить личное сообщение  
 
   Похожие торренты   Автор   Торрент   Размер 
В этой теме нет новых непрочитанных сообщений. Пока не сыграл в ящик / The Bucket List [комедия, драма, приключения, 2007] BDRip, Dub

salma3

94 | 4

1.46 ГБ

В этой теме нет новых непрочитанных сообщений. Черный ящик / La Boîte noire (Ришар Берри / Richard Berry) [2005г., Франция, триллер, детектив, мистика, HDTV 1080i] MVO

Alfredovich

16 | 7

3.8 ГБ

В этой теме нет новых непрочитанных сообщений. Жандарм из Сен-Тропе / Le gendarme de Saint-Tropez [комедия, 1964] DVDRip-AVC, Mvo

salma3

5 | 4

1.37 ГБ

В этой теме нет новых непрочитанных сообщений. Человек из Рио / L'Homme de Rio [комедия, мелодрама, приключения, боевик, 1964] HDRip, Dub

salma3

32 | 5

1.46 ГБ

В этой теме нет новых непрочитанных сообщений. Тото против Черного пирата / Totò contro il pirata nero [Комедия, 1964] DVDRip, Dvo

salma3

36 | 4

1.46 ГБ

В этой теме нет новых непрочитанных сообщений. Жандарм из Сен-Тропе / Les Gendarmes De Saint-Tropez (Антология) [комедия, криминал, 1964-1982] BDRip, Dub+Mvo

salma3

25 | 7

8.46 ГБ

В этой теме нет новых непрочитанных сообщений. Самое жуткое убийство / Murder Most Foul [триллер, драма, комедия, криминал, детектив, 1964] DVDRip, Avo

salma3

21 | 3

1.47 ГБ


Начать новую тему Ответить на тему  [ 1 сообщение ] 




Для Мосгорсуда, Роскомнадзора и рекламодателей:: mosgorsud-torrent[собачка]yandex.ru